<?xml version="1.0" standalone="no"?>
<!DOCTYPE svg PUBLIC "-//W3C//DTD SVG 1.1//EN" "http://www.w3.org/Graphics/SVG/1.1/DTD/svg11.dtd" >
<svg xmlns="http://www.w3.org/2000/svg">
<metadata>Generated by IcoMoon</metadata>
<defs>
<font id="rt-icons" horiz-adv-x="1024">
<font-face units-per-em="1024" ascent="960" descent="-64" />
<missing-glyph horiz-adv-x="1024" />
<glyph unicode="&#x20;" d="" horiz-adv-x="512" />
<glyph unicode="&#xe600;" d="M954.857 627.428q0-22.857-16-38.857l-491.429-491.429q-16-16-38.857-16t-38.857 16l-284.571 284.571q-16 16-16 38.857t16 38.857l77.714 77.714q16 16 38.857 16t38.857-16l168-168.571 374.857 375.429q16 16 38.857 16t38.857-16l77.714-77.714q16-16 16-38.857z" />
<glyph unicode="&#xe601;" d="M554.857 240v-120.571q0-38.286-22.286-38.286-13.143 0-25.714 12.571v172q12.571 12.571 25.714 12.571 22.286 0 22.286-38.286zM748 239.428v-26.286h-51.429v26.286q0 38.857 25.714 38.857t25.714-38.857zM196 364h61.143v53.714h-178.286v-53.714h60v-325.143h57.143v325.143zM360.571 38.857h50.857v282.286h-50.857v-216q-17.143-24-32.571-24-10.286 0-12 12-0.571 1.714-0.571 20v208h-50.857v-223.429q0-28 4.571-41.714 6.857-21.143 33.143-21.143 27.429 0 58.286 34.857v-30.857zM605.714 123.428v112.571q0 41.714-5.143 56.571-9.714 32-40.571 32-28.571 0-53.143-30.857v124h-50.857v-378.857h50.857v27.429q25.714-31.429 53.143-31.429 30.857 0 40.571 31.429 5.143 15.429 5.143 57.143zM798.857 129.143v7.429h-52q0-29.143-1.143-34.857-4-20.571-22.857-20.571-26.286 0-26.286 39.429v49.714h102.286v58.857q0 45.143-15.429 66.286-22.286 29.143-60.571 29.143-38.857 0-61.143-29.143-16-21.143-16-66.286v-98.857q0-45.143 16.571-66.286 22.286-29.143 61.714-29.143 41.143 0 61.714 30.286 10.286 15.429 12 30.857 1.143 5.143 1.143 33.143zM451.429 650.857v120q0 39.429-24.571 39.429t-24.571-39.429v-120q0-40 24.571-40t24.571 40zM862.286 221.714q0-133.714-14.857-200-8-33.714-33.143-56.571t-58.286-26.286q-105.143-12-317.143-12t-317.143 12q-33.143 3.429-58.571 26.286t-32.857 56.571q-14.857 64-14.857 200 0 133.714 14.857 200 8 33.714 33.143 56.571t58.857 26.857q104.571 11.429 316.571 11.429t317.143-11.429q33.143-4 58.571-26.857t32.857-56.571q14.857-64 14.857-200zM292 950.857h58.286l-69.143-228v-154.857h-57.143v154.857q-8 42.286-34.857 121.143-21.143 58.857-37.143 106.857h60.571l40.571-150.286zM503.429 760.571v-100q0-46.286-16-67.429-21.143-29.143-60.571-29.143-38.286 0-60 29.143-16 21.714-16 67.429v100q0 45.714 16 66.857 21.714 29.143 60 29.143 39.429 0 60.571-29.143 16-21.143 16-66.857zM694.857 853.143v-285.143h-52v31.429q-30.286-35.429-58.857-35.429-26.286 0-33.714 21.143-4.571 13.714-4.571 42.857v225.143h52v-209.714q0-18.857 0.571-20 1.714-12.571 12-12.571 15.429 0 32.571 24.571v217.714h52z" horiz-adv-x="878" />
<glyph unicode="&#xe602;" d="M742.997 657.664c-33.28 33.323-87.381 33.323-120.661 0l-110.336-110.336-110.336 110.336c-33.28 33.323-87.381 33.323-120.661 0-33.323-33.323-33.323-87.339 0-120.661l110.293-110.336-110.293-110.336c-33.323-33.323-33.323-87.339 0-120.661 16.64-16.683 38.485-25.003 60.331-25.003s43.691 8.32 60.331 25.003l110.336 110.336 110.336-110.336c16.64-16.683 38.485-25.003 60.331-25.003s43.691 8.32 60.331 25.003c33.323 33.323 33.323 87.339 0 120.661l-110.293 110.336 110.293 110.336c33.323 33.323 33.323 87.339 0 120.661z" />
<glyph unicode="&#xe603;" d="M469.333 575.958c0-58.91-47.756-106.667-106.667-106.667-58.91 0-106.667 47.756-106.667 106.667 0 58.91 47.756 106.667 106.667 106.667 58.91 0 106.667-47.756 106.667-106.667zM682.667 512c-85.333 0-128-128-192-128s-63.957 42.667-149.333 42.667c-85.333 0-128.043-170.667-128.043-170.667h597.376c0 0-42.667 256-128 256zM853.333 810.667h-682.667c-47.061 0-85.333-38.272-85.333-85.333v-512c0-47.061 38.272-85.333 85.333-85.333h682.667c47.061 0 85.333 38.272 85.333 85.333v512c0 47.061-38.272 85.333-85.333 85.333zM853.333 213.334h-682.667v512h682.667v-512z" />
<glyph unicode="&#xe604;" d="M570.624 636.459l158.336 158.293-18.688 18.517c-24.149 24.149-66.347 24.149-90.496 0l-67.669-67.669c-12.117-12.117-18.773-28.203-18.773-45.269s6.656-33.152 18.688-45.227l18.603-18.645zM283.563 386.603c-24.149 24.149-66.347 24.149-90.496 0l-67.669-67.669c-12.075-12.117-18.731-28.203-18.731-45.269s6.656-33.152 18.816-45.312l18.645-18.432 157.995 157.995-18.56 18.688zM786.645 736.896l-15.104 15.104-158.208-158.208 27.733-27.691c4.053-4.053 6.229-9.387 6.229-15.104s-2.219-11.051-6.229-15.104l-238.336-238.336c-8.064-8.021-22.101-8.064-30.165 0l-27.733 27.733-157.952-158.293 15.104-15.104c11.093-11.093 53.163-47.147 130.389-47.147 68.949 0 181.589 30.379 326.4 175.147 288.981 289.067 134.741 450.133 127.872 457.003z" />
<glyph unicode="&#xe605;" d="M512 496c0 103.083-83.584 186.667-186.667 186.667s-186.667-83.584-186.667-186.667c0-48.085 6.784-118.784 74.667-186.667s298.667-224 298.667-224 230.784 156.117 298.667 224 74.667 138.581 74.667 186.667c0 103.083-83.584 186.667-186.667 186.667s-186.667-83.584-186.667-186.667z" />
<glyph unicode="&#xe606;" d="M512 256c94.123 0 170.667 76.587 170.667 170.667v256c0 94.123-76.544 170.667-170.667 170.667s-170.667-76.544-170.667-170.667v-256c0-94.080 76.544-170.667 170.667-170.667zM810.667 426.667v85.333c0 23.552-19.072 42.667-42.667 42.667s-42.667-19.115-42.667-42.667v-85.333c0-117.632-95.701-213.333-213.333-213.333s-213.333 95.701-213.333 213.333v85.333c0 23.552-19.072 42.667-42.667 42.667s-42.667-19.115-42.667-42.667v-85.333c0-150.187 111.488-274.432 256-295.253v-46.080h-128c-23.595 0-42.667-19.072-42.667-42.667s19.072-42.667 42.667-42.667h341.333c23.595 0 42.667 19.072 42.667 42.667s-19.072 42.667-42.667 42.667h-128v46.080c144.512 20.821 256 145.067 256 295.253z" />
<glyph unicode="&#xe607;" d="M341.333 725.376c-70.699 0-128.469-57.344-128.469-128 0-3.115 0.213-375.253 0.213-384 0-94.251 76.501-170.667 170.752-170.667 7.851 0 380.075-0.043 384.128-0.043 70.613 0 128 57.429 128 128.043 0.043 306.304-248.277 554.667-554.624 554.667zM384.043 128.043c-47.147-0.085-85.376 38.144-85.376 85.291-0.085 47.147 38.144 85.376 85.376 85.376 47.147 0.085 85.376-38.144 85.291-85.376 0.085-47.147-38.144-85.376-85.291-85.291zM576 128.043c-35.371 0-64 28.629-64 64 0 82.389-66.987 149.333-149.333 149.333-35.371 0-64 28.629-64 64s28.629 64 64 64c152.917 0 277.333-124.416 277.333-277.333 0-35.371-28.629-64-64-64zM746.667 128.043c-35.371 0-64 28.629-64 64 0 176.469-143.531 320-320 320-35.371 0-64 28.629-64 64s28.629 64 64 64c247.040 0 448-200.96 448-448 0-35.371-28.629-64-64-64z" />
<glyph unicode="&#xe608;" d="M768 640c23.125 0 42.667-19.541 42.667-42.667v-298.667c0-23.125-19.541-42.667-42.667-42.667h-376.704l-7.296-7.296v7.296h-128c-23.125 0-42.667 19.541-42.667 42.667v298.667c0 23.125 19.541 42.667 42.667 42.667h512zM768 725.334h-512c-70.4 0-128-57.6-128-128v-298.667c0-70.4 57.6-128 128-128h42.667v-128l128 128h341.333c70.4 0 128 57.6 128 128v298.667c0 70.4-57.6 128-128 128z" />
<glyph unicode="&#xe609;" d="M512 725.334c68.651 0 133.12-26.197 181.504-73.813 48.043-47.232 74.496-110.037 74.496-176.64s-26.453-129.28-74.453-176.597l-181.547-178.517-181.504 178.603c-48 47.232-74.453 109.909-74.453 176.597s26.453 129.365 74.453 176.683c48.427 47.488 112.939 73.685 181.504 73.685zM512 810.667c-87.339 0-174.763-32.768-241.365-98.347-133.291-131.157-133.291-343.765 0-474.923l241.365-237.355 241.365 237.44c133.291 131.072 133.291 343.723 0 474.837-66.603 65.579-153.984 98.347-241.365 98.347zM512 576.043c28.501 0 55.296-11.093 75.435-31.189 41.643-41.643 41.643-109.312 0-150.912-20.181-20.139-46.933-31.189-75.435-31.189s-55.253 11.093-75.435 31.189c-41.643 41.643-41.643 109.312 0 150.912 20.181 20.096 46.976 31.189 75.435 31.189zM512 618.71c-38.229 0-76.459-14.592-105.6-43.691-58.325-58.325-58.325-152.917 0-211.243 29.184-29.184 67.328-43.691 105.6-43.691s76.459 14.592 105.6 43.691c58.283 58.325 58.283 152.917 0 211.243-29.141 29.141-67.371 43.691-105.6 43.691z" />
<glyph unicode="&#xe60a;" d="M746.667 682.71c12.032 0 23.979-4.523 33.152-13.696 18.389-18.389 18.389-48.085 0-66.432l-73.387-73.515 13.099-13.141c24.96-24.917 38.656-58.112 38.656-93.525s-13.696-68.565-38.656-93.483l-178.005-178.005c-24.917-24.917-58.069-38.656-93.483-38.656s-68.565 13.739-93.483 38.656l-13.227 13.184-73.515-73.515c-9.173-9.173-21.12-13.739-33.152-13.739s-23.979 4.565-33.152 13.739c-18.389 18.347-18.389 48.043 0 66.432l73.387 73.387-13.141 13.184c-24.875 24.917-38.613 58.069-38.613 93.483s13.696 68.608 38.613 93.525l178.048 178.048c24.917 24.917 59.179 37.333 93.483 37.333s68.565-12.416 93.483-37.333l13.227-13.141 73.515 73.515c9.173 9.173 21.12 13.696 33.152 13.696zM746.667 768.043c-35.328 0-68.48-13.696-93.483-38.741l-20.992-20.949c-30.165 14.976-64.171 22.997-98.816 22.997-58.155 0-114.219-22.741-153.813-62.336l-178.005-178.048c-41.131-41.045-63.744-95.616-63.744-153.899 0-35.072 8.192-68.949 23.808-99.285l-20.437-20.48c-25.003-24.96-38.784-58.197-38.784-93.568 0-35.285 13.739-68.48 38.741-93.483 24.917-25.003 58.155-38.741 93.483-38.741s68.48 13.739 93.483 38.741l20.48 20.48c30.336-15.573 64.171-23.851 99.328-23.851 58.155 0 112.853 22.613 153.813 63.659l178.005 178.005c41.088 41.045 63.659 95.659 63.659 153.813 0 35.157-8.192 68.992-23.808 99.328l20.437 20.48c25.131 25.045 38.912 58.283 38.912 93.568 0 35.328-13.739 68.523-38.741 93.525-25.045 25.088-58.197 38.784-93.525 38.784zM486.4 462.166c0.725-22.827 9.941-44.203 26.155-60.416 16.256-16.213 37.589-25.515 60.416-26.197l-78.165-78.123c-0.725 22.784-9.984 44.16-26.155 60.373-16.256 16.213-37.589 25.472-60.416 26.197l78.165 78.165zM533.333 553.43c-10.325 0-19.968-4.011-27.179-11.179l-178.005-178.005c-7.168-7.168-11.093-16.853-11.093-27.179 0-10.24 3.925-19.925 11.093-27.093l13.184-13.141 30.848 30.848c9.173 9.173 21.12 13.696 33.152 13.696s23.979-4.523 33.152-13.696c18.389-18.389 18.389-48.085 0-66.432l-30.72-30.848 13.141-13.141c7.168-7.168 17.109-10.795 27.136-10.795s19.968 3.584 27.179 10.795l178.005 178.048c7.168 7.168 11.093 16.853 11.093 27.093 0 10.325-3.925 20.011-11.093 27.179l-13.227 13.184-30.848-30.848c-9.173-9.173-21.12-13.739-33.152-13.739s-23.979 4.565-33.152 13.739c-18.389 18.347-18.389 48.043 0 66.432l30.72 30.72-13.099 13.184c-7.211 7.168-16.853 11.179-27.136 11.179z" />
<glyph unicode="&#xe60b;" d="M362.667 597.376c35.285 0 64-28.715 64-64s-28.715-64-64-64-64 28.715-64 64 28.715 64 64 64zM362.667 640.043c-58.923 0-106.667-47.744-106.667-106.667s47.744-106.667 106.667-106.667 106.667 47.744 106.667 106.667-47.744 106.667-106.667 106.667zM682.667 426.71c19.2-2.176 54.187-76.971 75.904-170.709h-486.059c18.517 44.117 45.013 85.376 68.779 85.376 34.389 0 48-7.893 65.28-17.92 19.072-11.008 42.923-24.747 84.053-24.747 48.555 0 82.859 37.76 113.195 71.083 26.752 29.312 51.968 56.917 78.848 56.917zM682.667 469.376c-85.333 0-128-128-192-128s-63.957 42.667-149.333 42.667c-85.333 0-128.043-170.667-128.043-170.667h597.376c0 0-42.667 256-128 256zM938.667 682.667c0 47.104-38.229 85.333-85.333 85.333h-682.667c-47.104 0-85.333-38.229-85.333-85.333v-512c0-47.104 38.229-85.333 85.333-85.333h682.667c47.104 0 85.333 38.229 85.333 85.333v512zM853.333 170.667h-682.667v512h682.795l-0.128-512z" />
<glyph unicode="&#xe60c;" d="M969.003 520.704c-1.749 1.749-173.013 174.763-255.232 262.229-17.92 17.664-42.624 27.733-67.669 27.733-50.432 0-91.435-38.229-91.435-85.333h-341.333c-23.595 0-42.667-19.115-42.667-42.667v-597.333c0-23.552 19.072-42.667 42.667-42.667h597.333c23.595 0 42.667 19.115 42.667 42.667v257.92c61.184 62.336 114.688 116.437 115.669 117.376 16.512 16.64 16.512 43.435 0 60.075zM651.904 258.518c-0.939-1.152-2.773-2.517-5.803-2.517-3.157 0-5.163 0.981-6.144 1.707v168.96h-42.667c-75.563-1.451-142.336-29.013-202.795-83.541 18.347 94.507 68.267 211.541 202.795 211.541h42.667v168.875c1.195 0.896 3.029 1.792 6.144 1.792 3.84 0 6.485-2.133 6.571-2.133 61.269-65.067 172.843-178.645 226.005-232.533-10.795-10.965-185.259-188.672-226.773-232.149zM256 128v512h341.333c0-14.848 0-29.653 0-42.667-198.827 0-256-207.829-256-362.667v-21.333c72.149 109.995 153.6 168.661 256 170.667 0-44.587 0-121.088 0-128 0-23.509 21.845-42.667 48.768-42.667 15.531 0 28.843 6.741 37.675 16.683 22.997 24.107 52.992 55.083 84.309 87.168v-189.184h-512.085z" />
<glyph unicode="&#xe60d;" d="M704 554.71c-4.907 0-9.813-0.213-15.019-0.64-35.157 101.333-141.312 171.307-251.648 171.307-141.184 0-266.667-114.773-266.667-256 0-1.792 0-3.584 0-5.376-42.667-18.987-117.333-85.931-117.333-165.333 0-94.123 87.211-170.667 181.333-170.667h469.333c117.632 0 213.333 95.744 213.333 213.333s-95.701 213.376-213.333 213.376zM704 213.334h-192v161.877l91.563-91.563c4.181-4.224 9.643-6.229 15.104-6.229s10.923 2.091 15.104 6.229c8.32 8.277 8.32 21.845 0 30.165l-127.915 128c-2.005 1.92-4.437 3.499-6.997 4.565-5.248 2.176-11.093 2.176-16.341 0-2.603-1.067-4.907-2.645-6.912-4.565l-128-128c-8.277-8.32-8.277-21.888 0-30.165 4.224-4.224 9.685-6.229 15.104-6.229s10.923 2.091 15.104 6.229l91.52 91.563v-161.877h-234.667c-47.104 0-85.333 38.229-85.333 85.333s38.229 85.333 81.408 85.547l60.672-0.64-10.581 51.243c-2.347 11.264-3.499 22.869-3.499 34.517 0 94.123 76.544 170.667 170.667 170.667 83.243 0 153.771-59.819 167.68-142.251l7.979-47.019 45.781 13.056c13.312 3.797 24.277 5.547 34.645 5.547 70.528 0 128-57.429 128-128s-57.515-128-128.085-128z" />
<glyph unicode="&#xe60e;" d="M719.147 44.118c-9.557 0-18.901 2.133-27.563 6.229-1.493 0.597-2.944 1.323-4.437 2.176l-175.232 99.968-175.232-100.011c-1.493-0.853-2.987-1.579-4.523-2.261-20.821-9.728-46.293-7.424-64.896 6.101-20.011 14.507-29.909 39.808-25.003 64.384l40.832 198.059c-15.957 14.507-41.045 37.333-68.352 62.165l-80.853 73.6c-1.152 1.067-2.347 2.261-3.328 3.499-16 16.896-21.717 41.387-14.507 63.659 7.381 22.357 26.453 38.912 49.493 43.051 1.451 0.341 2.859 0.597 4.352 0.768l200.576 22.229 83.029 183.893c0.725 1.621 1.536 3.2 2.56 4.693 11.179 20.181 32.597 32.896 55.851 32.896 23.168 0 44.544-12.715 55.851-32.853 0.896-1.536 1.749-3.115 2.56-4.779l83.115-183.979 200.576-22.229c1.451-0.128 2.901-0.384 4.437-0.725 22.997-4.267 42.069-20.736 49.408-43.179 7.253-22.229 1.493-46.848-14.507-63.744-1.024-1.109-2.176-2.304-3.328-3.328l-149.248-135.851 40.832-197.632c4.821-25.045-5.035-50.261-25.173-64.811-10.752-7.765-23.723-11.989-37.291-11.989zM371.456 324.182c-1.664-7.765-19.883-95.829-36.053-174.165l155.435 88.619c13.099 7.467 29.184 7.467 42.24 0l155.435-88.533-36.224 175.104c-3.029 14.763 1.92 30.080 13.141 40.192l132.267 120.405-177.835 19.669c-14.976 1.664-27.904 11.093-34.176 24.917l-73.728 163.029-73.643-163.029c-6.229-13.739-19.2-23.168-34.176-24.917l-177.835-19.669 132.267-120.405c11.605-10.496 16.384-26.325 12.885-41.216z" />
<glyph unicode="&#xe60f;" d="M810.667 640h-597.333c-47.104 0-85.333-38.229-85.333-85.333v-384c0-47.104 38.229-85.333 85.333-85.333h597.333c47.104 0 85.333 38.229 85.333 85.333v384c0 47.104-38.229 85.333-85.333 85.333zM397.483 327.851l68.352-59.733c13.013-11.349 29.483-16.981 46.165-16.981s33.152 5.675 46.165 16.981l68.352 59.733-1.579-1.579 155.563-155.563h-537.003l155.563 155.563-1.579 1.579zM213.333 200.832v288.128l153.685-134.443-153.685-153.685zM656.981 354.518l153.685 134.443v-288l-153.685 153.557zM810.667 554.667v-8.96l-280.576-245.504c-9.685-8.448-26.496-8.448-36.181 0l-280.576 245.504v8.96h597.333z" />
<glyph unicode="&#xe610;" d="M512 85.334c-8.32 0-16.683 2.432-23.936 7.339-9.6 6.443-235.008 159.147-304.896 229.163-78.123 78.123-87.168 161.152-87.168 216.832 0 126.464 102.869 229.333 229.333 229.333 76.885 0 144.981-38.016 186.667-96.256 41.685 58.24 109.781 96.256 186.667 96.256 126.464 0 229.333-102.869 229.333-229.333 0-55.68-9.045-138.709-87.168-216.832-70.016-70.016-295.381-222.72-304.896-229.163-7.253-4.907-15.616-7.339-23.936-7.339zM325.333 682.667c-79.403 0-144-64.597-144-144 0-46.635 7.381-101.717 62.165-156.501 51.712-51.712 208.341-161.067 268.501-202.496 60.16 41.429 216.789 150.784 268.501 202.496 54.784 54.784 62.165 109.867 62.165 156.501 0 79.403-64.597 144-144 144s-144-64.597-144-144c0-23.552-19.072-42.667-42.667-42.667s-42.667 19.115-42.667 42.667c0 79.403-64.597 144-144 144z" />
<glyph unicode="&#xe611;" d="ml-106.667 682.667 213.333-123.648-320-303.019 106.667 256-213.333 123.733 320 302.933zM618.667 853.334c-23.979-0.512-43.904-9.344-58.837-23.509l-319.872-302.72c-19.541-18.56-29.227-45.184-26.027-71.936 3.072-26.709 18.645-50.432 41.899-63.915l148.565-86.229-77.909-186.923c-15.445-37.163-2.816-80.171 30.379-103.083 14.677-10.069 31.531-15.104 48.427-15.104 21.248 0 42.368 7.936 58.667 23.381l320 303.061c19.541 18.517 29.227 45.141 26.027 71.893-3.115 26.752-18.688 50.475-41.899 63.915l-148.565 86.101 76.331 183.168c5.248 11.093 8.192 23.509 8.192 36.565 0 47.019-37.973 85.163-85.376 85.333z" />
<glyph unicode="&#xe612;" d="M973.995 486.998l-401.664 401.664c-16.683 16.683-38.485 25.003-60.331 25.003s-43.648-8.32-60.331-25.003l-401.664-401.664c-33.323-33.237-33.323-87.339 0-120.661l401.664-401.664c16.683-16.683 38.485-25.003 60.331-25.003s43.648 8.32 60.331 25.003l401.664 401.664c33.323 33.323 33.323 87.424 0 120.661zM725.333 256c-10.923 0-21.845 4.181-30.165 12.501-16.683 16.683-16.683 43.648 0 60.331l55.168 55.168h-195.669v-195.669l55.168 55.168c8.32 8.32 19.243 12.501 30.165 12.501s21.845-4.181 30.165-12.501c16.683-16.683 16.683-43.648 0-60.331l-158.165-158.165-158.165 158.165c-16.683 16.683-16.683 43.648 0 60.331 8.32 8.32 19.243 12.501 30.165 12.501s21.845-4.181 30.165-12.501l55.168-55.168v195.669h-195.669l55.168-55.168c16.683-16.683 16.683-43.648 0-60.331-8.32-8.32-19.243-12.501-30.165-12.501s-21.845 4.181-30.165 12.501l-158.165 158.165 158.165 158.165c8.32 8.32 19.243 12.501 30.165 12.501s21.845-4.181 30.165-12.501c16.683-16.683 16.683-43.648 0-60.331l-55.168-55.168h195.669v195.669l-55.168-55.168c-8.32-8.32-19.243-12.501-30.165-12.501s-21.845 4.181-30.165 12.501c-16.683 16.683-16.683 43.648 0 60.331l158.165 158.165 158.165-158.165c16.683-16.683 16.683-43.648 0-60.331-8.32-8.32-19.243-12.501-30.165-12.501s-21.845 4.181-30.165 12.501l-55.168 55.168v-195.669h195.669l-55.168 55.168c-16.683 16.683-16.683 43.648 0 60.331 8.32 8.32 19.243 12.501 30.165 12.501s21.845-4.181 30.165-12.501l158.165-158.165-158.165-158.165c-8.32-8.32-19.243-12.501-30.165-12.501zM651.435 341.334c-7.467-12.843-11.435-27.435-11.435-42.667-15.232 0-29.824-3.968-42.667-11.435v54.101h54.101zM372.565 341.334h54.101v-54.101c-12.843 7.467-27.435 11.435-42.667 11.435 0 15.232-3.968 29.824-11.435 42.667zM372.565 512c7.467 12.843 11.435 27.435 11.435 42.667 15.232 0 29.824 3.968 42.667 11.435v-54.101h-54.101zM651.435 512h-54.101v54.101c12.843-7.467 27.435-11.435 42.667-11.435 0-15.232 3.968-29.824 11.435-42.667z" />
<glyph unicode="&#xe613;" d="M512 384h85.333c23.467 0 42.667 19.2 42.667 42.667s-19.2 42.667-42.667 42.667h-42.667v42.667c0 23.467-19.2 42.667-42.667 42.667s-42.667-19.2-42.667-42.667v-85.333c0-23.467 19.2-42.667 42.667-42.667zM725.333 635.52v89.813c0 70.571-57.429 128-128 128h-170.667c-70.571 0-128-57.429-128-128v-89.813c-52.736-53.888-85.333-127.531-85.333-208.853s32.597-154.965 85.333-208.853v-89.813c0-70.571 57.429-128 128-128h170.667c70.571 0 128 57.429 128 128v89.813c52.736 53.845 85.333 127.488 85.333 208.853s-32.597 154.965-85.333 208.853zM384 725.334c0 23.509 19.157 42.667 42.667 42.667h170.667c23.509 0 42.667-19.157 42.667-42.667v-77.184c-37.675 21.845-81.323 34.517-128 34.517s-90.325-12.672-128-34.517v77.184zM640 128c0-23.509-19.157-42.667-42.667-42.667h-170.667c-23.509 0-42.667 19.157-42.667 42.667v77.269c37.675-21.888 81.323-34.603 128-34.603s90.325 12.715 128 34.603v-77.269zM512 213.334c-117.632 0-213.333 95.701-213.333 213.333s95.701 213.333 213.333 213.333 213.333-95.701 213.333-213.333-95.701-213.333-213.333-213.333z" />
<glyph unicode="&#xe614;" d="M682.667 384c0 23.467-19.2 42.667-42.667 42.667h-128c-23.467 0-42.667-19.2-42.667-42.667s19.2-42.667 42.667-42.667h128c23.467 0 42.667 19.2 42.667 42.667zM512 682.667c164.651 0 298.667-134.016 298.667-298.667s-134.016-298.667-298.667-298.667-298.667 134.016-298.667 298.667 134.016 298.667 298.667 298.667zM512 768c-212.096 0-384-171.904-384-384s171.904-384 384-384 384 171.904 384 384-171.904 384-384 384zM554.667 512c0 23.467-19.2 42.667-42.667 42.667s-42.667-19.2-42.667-42.667v-128c0-23.467 19.2-42.667 42.667-42.667s42.667 19.2 42.667 42.667v128zM512 597.334c117.632 0 213.333-95.701 213.333-213.333s-95.701-213.333-213.333-213.333-213.333 95.701-213.333 213.333 95.701 213.333 213.333 213.333zM512 640c-141.312 0-256-114.603-256-256 0-141.312 114.688-256 256-256s256 114.688 256 256c0 141.397-114.688 256-256 256z" />
<glyph unicode="&#xe615;" d="M473.045 46.336c-15.061 0-52.011 6.229-71.168 63.829l-51.584 154.752-154.795 51.584c-53.077 17.707-62.677 50.005-63.701 67.712s4.864 50.901 55.552 74.539l485.333 226.517c43.989 20.437 82.005 13.184 100.181-15.445 9.557-14.976 16.896-41.387-2.261-82.475l-226.517-485.333c-22.571-48.427-54.272-55.68-71.040-55.68zM243.072 390.571l174.677-58.155 58.24-174.635 203.733 436.608-436.651-203.819z" />
<glyph unicode="&#xe616;" d="M662.784 748.118c43.691 0 87.467-16.64 120.704-49.877 66.603-66.603 66.603-174.848 0-241.323l-301.696-301.739c-33.195-33.237-76.971-49.92-120.661-49.92s-87.424 16.683-120.661 49.92c-66.56 66.517-66.56 174.848 0 241.323l34.432 34.432c-0.171-34.347 10.667-65.024 29.909-90.667l-4.011-4.096c-33.28-33.237-33.28-87.424 0-120.661 16.64-16.64 38.443-24.917 60.331-24.917s43.691 8.32 60.331 24.917l301.739 301.739c33.195 33.237 33.195 87.424 0 120.661-16.725 16.64-38.571 24.917-60.459 24.917-21.845 0-43.648-8.32-60.288-24.917l-193.493-193.579c-5.461-5.419-6.229-11.733-6.229-15.104 0-3.243 0.811-9.643 6.229-15.061 4.224-4.224 9.728-6.272 15.189-6.272 5.419 0 10.837 2.091 15.019 6.229l150.87 150.827c16.725-16.725 25.003-38.485 25.003-60.331 0-21.803-8.277-43.563-24.917-60.16-0.085-0.171-90.624-90.667-90.624-90.667-20.736-20.779-48.085-31.104-75.435-31.104s-54.613 10.411-75.477 31.104c-20.139 20.224-31.189 46.976-31.189 75.477 0 28.587 11.136 55.339 31.232 75.52l193.451 193.493c33.237 33.237 77.013 49.835 120.704 49.835zM662.784 833.451c-68.437 0-132.693-26.581-180.992-74.88l-301.611-301.781c-48.341-48.256-74.965-112.555-74.965-180.992s26.624-132.693 74.965-181.035c48.256-48.299 112.597-74.88 180.949-74.88s132.693 26.624 180.992 74.965l301.696 301.696c48.341 48.256 74.965 112.555 74.965 180.992 0 68.395-26.581 132.693-74.88 180.949-48.341 48.384-112.64 74.965-181.12 74.965z" />
<glyph unicode="&#xe617;" d="M512 682.667c70.571 0 128-57.429 128-128s-57.429-128-128-128-128 57.429-128 128 57.429 128 128 128zM512 768c-117.931 0-213.333-95.488-213.333-213.333s95.403-213.333 213.333-213.333 213.333 95.488 213.333 213.333-95.403 213.333-213.333 213.333zM512 213.334c86.229 0 140.843-32.896 161.408-61.653-29.141-11.093-84.011-23.68-161.408-23.68-84.651 0-136.789 13.013-162.901 23.125 19.584 30.507 75.819 62.208 162.901 62.208zM512 298.667c-160 0-256-85.333-256-170.667 0-42.667 96-85.333 256-85.333 150.101 0 256 42.667 256 85.333s-100.437 170.667-256 170.667z" />
<glyph unicode="&#xe618;" d="M567.467 213.334c0-30.633-24.833-55.467-55.467-55.467-30.633 0-55.467 24.833-55.467 55.467 0 30.633 24.833 55.467 55.467 55.467 30.633 0 55.467-24.833 55.467-55.467zM725.333 512h-42.667v85.333c0 94.123-76.544 170.667-170.667 170.667s-170.667-76.544-170.667-170.667v-85.333h-42.667c-47.104 0-85.333-38.229-85.333-85.333v-298.667c0-47.104 38.229-85.333 85.333-85.333h426.667c47.104 0 85.333 38.229 85.333 85.333v298.667c0 47.104-38.229 85.333-85.333 85.333zM426.667 597.334c0 47.104 38.229 85.333 85.333 85.333s85.333-38.229 85.333-85.333v-128h-170.667v128zM725.333 128h-426.667v298.667h426.795l-0.128-298.667z" />
<glyph unicode="&#xe619;" d="M567.467 213.334c0-30.633-24.833-55.467-55.467-55.467-30.633 0-55.467 24.833-55.467 55.467 0 30.633 24.833 55.467 55.467 55.467 30.633 0 55.467-24.833 55.467-55.467zM768 768c-94.123 0-170.667-76.544-170.667-170.667v-128h-170.667v42.667h-128c-47.104 0-85.333-38.229-85.333-85.333v-298.667c0-47.104 38.229-85.333 85.333-85.333h426.667c47.104 0 85.333 38.229 85.333 85.333v298.667c0 47.104-38.229 85.333-85.333 85.333h-42.667v85.333c0 47.104 38.229 85.333 85.333 85.333s85.333-38.229 85.333-85.333v-128c0-23.552 19.115-42.667 42.667-42.667s42.667 19.115 42.667 42.667v128c0 94.123-76.544 170.667-170.667 170.667zM725.333 128h-426.667v298.667h426.795l-0.128-298.667z" />
<glyph unicode="&#xe61a;" d="M512 341.334c117.931 0 213.333 95.488 213.333 213.333s-95.403 213.333-213.333 213.333-213.333-95.488-213.333-213.333 95.403-213.333 213.333-213.333zM512 682.667c70.571 0 128-57.429 128-128s-57.429-128-128-128-128 57.429-128 128 57.429 128 128 128zM853.333 298.667c58.923 0 106.667 47.659 106.667 106.667 0 58.923-47.744 106.667-106.667 106.667-58.965 0-106.667-47.744-106.667-106.667 0-59.008 47.701-106.667 106.667-106.667zM853.333 469.334c35.285 0 64-28.715 64-64s-28.715-64-64-64-64 28.715-64 64 28.715 64 64 64zM853.333 273.494c-56.789 0-99.499-17.323-124.459-41.344-47.573 39.168-122.795 66.517-216.875 66.517-96.683 0-170.453-27.648-217.259-66.731-25.429 24.107-68.608 41.6-124.075 41.6-93.355 0-149.333-46.549-149.333-93.141 0-23.253 55.979-46.592 149.333-46.592 25.771 0 48.896 2.176 69.248 5.675-0.427-3.84-1.707-7.68-1.707-11.52 0-42.667 102.613-85.333 273.792-85.333 160.512 0 273.792 42.667 273.792 85.333 0 3.627-0.469 7.253-0.896 10.88 19.755-3.115 42.496-5.035 68.437-5.035 87.509 0 149.333 23.339 149.333 46.592 0 46.592-58.581 93.099-149.333 93.099zM170.667 176.512c-55.851 0-88.235 8.832-103.125 15.104 10.197 17.28 42.795 39.253 103.125 39.253 47.232 0 78.379-14.976 94.208-30.123-3.584-4.864-7.211-9.685-10.027-14.677-19.285-5.077-47.275-9.557-84.181-9.557zM512 128c-92.288 0-149.376 13.312-178.517 23.936 22.229 28.928 81.835 61.397 178.517 61.397 92.544 0 153.173-32.469 176.981-60.8-32.213-11.52-92.245-24.533-176.981-24.533zM853.333 176.512c-38.997 0-65.963 4.395-84.181 9.088-3.072 5.419-6.613 10.752-10.581 16 15.189 14.72 45.696 29.227 94.763 29.227 56.491 0 91.349-21.376 102.571-38.869-16.64-6.955-51.413-15.445-102.571-15.445zM170.667 298.667c58.923 0 106.667 47.744 106.667 106.667 0 58.837-47.744 106.667-106.667 106.667-58.965 0-106.667-47.829-106.667-106.667 0-58.923 47.701-106.667 106.667-106.667zM170.667 469.334c35.285 0 64-28.715 64-64s-28.715-64-64-64-64 28.715-64 64 28.715 64 64 64z" />
<glyph unicode="&#xe61b;" d="M777.685 614.016l23.765 23.851c16.896 16.896 25.899 40.235 24.832 64.171-1.109 23.936-12.203 46.251-30.592 61.568-90.837 75.733-201.003 121.515-318.677 132.139-2.56 0.128-5.077 0.256-7.68 0.256-21.205 0-41.771-7.936-57.6-22.315-17.664-16.171-27.733-39.040-27.733-63.019v-95.104c-156.032-36.907-270.208-178.688-270.208-341.589 0-194.005 157.355-351.744 350.891-351.744 68.011 0 132.693 20.437 189.483 57.387 11.819-6.059 24.875-9.643 38.4-9.643 1.579 0 3.072 0.085 4.651 0.171 24.277 1.28 46.848 13.013 61.995 32 60.629 75.989 94.037 171.477 94.037 268.672 0.085 86.699-26.667 171.819-75.563 243.2zM464.683 107.563c-146.688 0-265.557 119.168-265.557 266.411 0 133.845 98.859 244.437 227.541 262.997v-273.408l196.651-202.837c-44.245-33.237-99.072-53.163-158.635-53.163zM469.333 425.6v385.067c102.869-9.301 196.565-50.048 271.616-112.683l-271.616-272.384zM478.464 371.456l214.144 214.528c47.104-59.093 75.477-134.016 75.477-215.168 0-81.664-28.331-156.416-75.477-215.509l-214.144 216.149z" />
<glyph unicode="&#xe61c;" d="M341.333 469.334c0-23.564-19.103-42.667-42.667-42.667-23.564 0-42.667 19.103-42.667 42.667 0 23.564 19.103 42.667 42.667 42.667 23.564 0 42.667-19.103 42.667-42.667zM920.96 631.979c-11.179 8.021-25.557 10.283-38.443 5.845l-72.832-24.235c-8.021 63.019-61.909 111.787-127.019 111.787h-469.333c-70.571 0-128-57.472-128-128v-256c0-70.528 57.429-128 128-128h128v-47.403l0.341-3.84c2.816-31.488 16.256-60.715 37.845-82.261 23.979-23.979 55.936-37.205 89.771-37.205s65.792 13.227 89.771 37.12c24.491 24.619 38.315 57.429 38.229 90.155v43.392h85.333c65.024 0 118.997 48.853 127.061 111.787l72.832-24.235c12.928-4.437 27.307-2.176 38.4 5.888 11.179 8.021 17.707 20.907 17.707 34.645v256c0.043 13.568-6.528 26.496-17.664 34.56zM512 169.686c0.043-10.581-5.077-21.333-13.184-29.397-8.149-8.064-18.816-12.203-29.525-12.203-10.667 0-21.376 4.139-29.44 12.203-8.107 8.064-12.16 18.816-13.184 29.483v86.229h85.333v-86.315zM725.333 341.334c0-23.552-19.115-42.667-42.667-42.667h-469.333c-23.552 0-42.667 19.115-42.667 42.667v256c0 23.552 19.115 42.667 42.667 42.667h469.333c23.552 0 42.667-19.115 42.667-42.667v-256zM853.333 400.598c0 0-80.853 25.813-85.333 25.813v85.845c4.48 0 85.333 25.813 85.333 25.813v-137.472z" />
<glyph unicode="&#xe61d;" d="M869.675 807.424c-15.915 6.613-34.304 2.944-46.507-9.259l-164.992-164.992-183.509 146.816c-16.896 13.483-41.515 12.245-56.832-3.157l-192-192c-8.021-7.979-12.501-18.816-12.501-30.165v-426.667c0-17.237 10.368-32.853 26.325-39.424 5.291-2.261 10.837-3.243 16.341-3.243 11.093 0 22.016 4.352 30.165 12.501l164.992 164.992 183.509-146.816c16.896-13.483 41.429-12.16 56.832 3.157l192 192c8.021 7.979 12.501 18.816 12.501 30.165v426.667c0 17.237-10.368 32.853-26.325 39.424zM298.667 230.998v306.005l128 128v-308.907c-2.987-1.835-128-125.099-128-125.099zM474.667 353.323c-1.621 1.237-3.584 1.92-5.333 2.901v318.677c0 0 168.917-134.101 170.667-135.083v-318.848l-165.333 132.352zM810.667 358.998l-128-128v308.736c2.987 1.835 128 125.269 128 125.269v-306.005z" />
<glyph unicode="&#xe61e;" d="M426.667 42.667h-256v188.331l161.408 161.408c-7.979 25.045-12.075 50.859-12.075 76.928 0 141.184 114.816 256 256 256s256-114.816 256-256-114.816-256-256-256h-64v-85.333h-85.333v-85.333zM256 128h85.333v85.333h85.333v85.333h149.333c94.123 0 170.667 76.544 170.667 170.667s-76.544 170.667-170.667 170.667-170.667-76.544-170.667-170.667c0-23.851 5.163-47.317 15.317-69.931l12.16-26.923-176.811-176.811v-67.669zM576 512.086c23.509 0 42.667-19.157 42.667-42.752 0-23.552-19.157-42.667-42.667-42.667s-42.667 19.115-42.667 42.667c0 23.595 19.157 42.752 42.667 42.752zM576 554.752c-47.104 0-85.333-38.229-85.333-85.419 0-47.104 38.229-85.333 85.333-85.333 47.147 0 85.333 38.229 85.333 85.333 0 47.147-38.187 85.419-85.333 85.419z" />
<glyph unicode="&#xe61f;" d="M701.184 571.904c49.152 0 95.445-19.157 130.261-53.931 34.773-34.816 54.016-81.067 54.016-130.389s-19.2-95.531-54.101-130.389c-34.688-34.773-80.981-54.016-130.261-54.016s-95.488 19.157-130.347 54.016l-58.709 56.32-59.52-57.088c-34.005-34.091-80.299-53.248-129.536-53.248s-95.531 19.157-130.304 54.059c-34.773 34.688-53.973 81.024-53.973 130.261s19.2 95.445 54.059 130.389c34.731 34.688 80.981 54.016 130.261 54.016 49.237 0 95.531-19.157 130.347-54.016l58.667-56.32 59.563 57.173c34.048 34.005 80.299 53.163 129.579 53.163zM701.184 657.238c-71.637 0-138.667-27.52-189.141-77.355-49.621 49.451-117.163 77.355-189.013 77.355-72.021 0-139.691-28.032-190.592-79.061-50.944-50.859-79.019-118.613-79.019-190.677s28.075-139.691 79.019-190.635c50.816-50.859 118.571-79.019 190.635-79.019 71.637 0 138.709 27.52 189.056 77.397 49.621-49.493 117.163-77.397 189.056-77.397 72.064 0 139.776 28.075 190.677 79.104 50.901 50.688 79.019 118.443 79.019 190.592 0 72.021-28.075 139.691-79.019 190.72-51.072 50.987-118.741 78.976-190.677 78.976zM323.029 422.571c9.6 0 18.176-3.755 26.112-11.563l24.32-23.381-25.728-24.704c-6.016-6.059-15.019-9.515-24.661-9.515-9.685 0-18.688 3.413-24.747 9.515-6.613 6.613-10.24 15.36-10.24 24.661 0 9.429 3.584 18.005 10.368 24.789 6.656 6.613 15.147 10.197 24.576 10.197zM323.029 465.238c-20.736 0-40.192-8.064-54.827-22.741-14.72-14.763-22.827-34.176-22.827-54.912 0-20.651 8.064-40.149 22.741-54.827 14.677-14.677 34.773-22.016 54.912-22.016 20.096 0 40.192 7.339 54.827 22.016l57.131 54.827-56.363 54.187c-15.36 15.403-34.859 23.467-55.595 23.467zM701.184 421.846c9.728 0 18.688-3.413 24.576-9.344 6.741-6.784 10.325-15.317 10.325-24.832s-3.541-18.005-10.368-24.789c-6.144-6.229-15.019-9.728-24.363-9.728-9.813 0-18.944 3.755-26.325 11.136l-24.363 23.381 25.728 24.661c6.016 6.101 15.061 9.515 24.789 9.515zM701.184 464.512c-20.139 0-40.235-7.339-54.912-22.016l-57.173-54.827 56.405-54.187c15.445-15.403 35.755-22.997 55.936-22.997 20.139 0 39.979 7.552 54.571 22.229 14.763 14.677 22.784 34.176 22.784 54.912s-8.021 40.149-22.699 54.912c-14.763 14.677-34.859 21.973-54.912 21.973z" />
<glyph unicode="&#xe620;" d="M469.333 682.667c94.123 0 170.667-76.544 170.667-170.667s-76.544-170.667-170.667-170.667c-94.037 0-170.581 76.544-170.581 170.667s76.544 170.667 170.581 170.667zM469.333 768c-141.397 0-255.915-114.603-255.915-256s114.517-256 255.915-256c141.312 0 256 114.688 256 256 0 141.397-114.688 256-256 256zM725.333 85.334h-170.667v52.48c70.016 15.829 134.229 50.688 186.155 102.656 72.491 72.491 112.512 168.96 112.512 271.488 0 88.192-29.483 171.861-83.968 239.744l28.8 28.715c16.683 16.683 16.683 43.648 0.043 60.373-16.725 16.725-43.691 16.64-60.373 0.043l-87.552-87.424 30.208-30.208c56.405-56.363 87.509-131.413 87.509-211.2s-31.104-154.752-87.509-211.157-131.371-87.509-211.157-87.509-154.752 31.104-211.157 87.509c-16.683 16.683-43.648 16.683-60.331 0-16.683-16.64-16.683-43.648 0-60.331 72.491-72.491 168.917-112.512 271.488-112.512v-42.667h-170.667c-23.595 0-42.667-19.072-42.667-42.667s19.072-42.667 42.667-42.667h426.667c23.595 0 42.667 19.072 42.667 42.667s-19.072 42.667-42.667 42.667z" />
<glyph unicode="&#xe621;" d="M512 554.667c51.669 0 101.589-15.147 140.672-42.837 55.509-39.253 103.68-90.624 135.040-127.829-31.36-37.205-79.531-88.619-135.083-127.829-39.040-27.691-88.96-42.837-140.629-42.837s-101.632 15.147-140.757 42.837c-55.509 39.253-103.68 90.624-134.997 127.829 31.317 37.205 79.488 88.576 134.997 127.787 39.125 27.733 89.088 42.88 140.757 42.88zM512 640c-72.149 0-138.325-22.016-189.995-58.496-111.744-79.019-194.005-197.504-194.005-197.504s82.261-118.485 194.005-197.504c51.669-36.48 117.845-58.496 189.995-58.496s138.325 22.016 189.909 58.496c111.744 79.019 194.091 197.504 194.091 197.504s-82.347 118.485-194.091 197.504c-51.584 36.48-117.76 58.496-189.909 58.496zM512 426.667c-23.595 0-42.667-19.072-42.667-42.667 0-23.509 19.072-42.667 42.667-42.667 23.509 0 42.667 19.157 42.667 42.667 0 23.595-19.157 42.667-42.667 42.667zM512 256c-70.571 0-128 57.429-128 128s57.429 128 128 128 128-57.429 128-128-57.429-128-128-128zM512 469.334c-47.104 0-85.333-38.229-85.333-85.333s38.229-85.333 85.333-85.333 85.333 38.229 85.333 85.333-38.229 85.333-85.333 85.333z" />
<glyph unicode="&#xe622;" d="M554.667 725.334l36.48-145.92 144.597 41.429 64.043-110.933-108.16-104.491 108.16-104.576-64-110.933-144.64 41.429-36.48-146.005h-128l-36.48 146.005-144.64-41.429-64.043 110.933 108.16 104.576-108.117 104.491 64 110.933 144.64-41.429 36.48 145.92h128zM554.667 810.667h-128c-39.168 0-73.301-26.667-82.731-64.683l-15.104-60.245-59.733 17.067c-7.851 2.261-15.744 3.328-23.552 3.328-29.867 0-58.368-15.787-73.856-42.667l-64-110.933c-19.584-33.963-13.525-76.885 14.592-104.021l44.672-43.136-44.715-43.307c-28.16-27.179-34.219-70.101-14.635-104.021l64.085-110.933c15.488-26.923 43.989-42.667 73.856-42.667 7.808 0 15.701 1.067 23.552 3.243l59.691 17.109 15.104-60.373c9.472-37.76 43.605-64.427 82.773-64.427h128c39.168 0 73.301 26.667 82.731 64.683l15.104 60.331 59.691-17.067c7.851-2.261 15.744-3.285 23.552-3.285 29.867 0 58.368 15.787 73.856 42.667l64 110.933c19.584 33.963 13.525 76.8-14.592 104.021l-44.672 43.221 44.672 43.221c28.16 27.179 34.176 70.144 14.592 104.021l-64 110.933c-15.573 26.923-43.989 42.667-73.899 42.667-7.851 0-15.701-1.067-23.509-3.243l-59.733-17.109-15.104 60.288c-9.387 37.717-43.52 64.384-82.688 64.384zM490.667 490.667c47.104 0 85.333-38.187 85.333-85.333 0-47.104-38.229-85.333-85.333-85.333s-85.333 38.229-85.333 85.333c0 47.147 38.229 85.333 85.333 85.333zM490.667 533.334c-70.571 0-128-57.429-128-128s57.429-128 128-128 128 57.429 128 128-57.429 128-128 128z" />
<glyph unicode="&#xe623;" d="M810.667 85.334h-597.333c-70.571 0-128 57.429-128 128v341.333c0 70.571 57.429 128 128 128h67.669l42.667 42.667c24.704 24.704 68.096 42.667 102.997 42.667h170.667c34.901 0 78.293-17.963 102.997-42.667l42.667-42.667h67.669c70.571 0 128-57.429 128-128v-341.333c0-70.571-57.429-128-128-128zM213.333 597.334c-23.552 0-42.667-19.115-42.667-42.667v-341.333c0-23.552 19.115-42.667 42.667-42.667h597.333c23.552 0 42.667 19.115 42.667 42.667v341.333c0 23.552-19.115 42.667-42.667 42.667h-85.333c-11.349 0-22.187 4.48-30.165 12.501l-55.168 55.168c-8.576 8.576-30.507 17.664-42.667 17.664h-170.667c-12.16 0-34.091-9.088-42.667-17.664l-55.168-55.168c-7.979-8.021-18.816-12.501-30.165-12.501h-85.333zM512 512c58.837 0 106.667-47.829 106.667-106.667s-47.829-106.667-106.667-106.667-106.667 47.829-106.667 106.667 47.829 106.667 106.667 106.667zM512 554.667c-82.517 0-149.333-66.816-149.333-149.333 0-82.432 66.816-149.333 149.333-149.333s149.333 66.901 149.333 149.333c0 82.517-66.816 149.333-149.333 149.333zM768 567.51c-30.677 0-55.467-24.832-55.467-55.509s24.789-55.424 55.467-55.424 55.467 24.747 55.467 55.424-24.789 55.509-55.467 55.509z" />
<glyph unicode="&#xe624;" d="M773.291 713.814c3.584 0 7.168-0.171 10.667-0.555 6.955-0.939 13.611-0.853 19.968-3.285 6.229-2.133 12.459-3.584 17.92-6.229 10.837-5.589 20.096-11.179 26.923-18.005 7.424-5.845 10.581-11.904 13.696-15.829 2.944-4.096 4.608-6.229 4.608-6.229s-2.603 1.067-7.083 3.157c-4.48 1.835-11.008 5.931-18.859 6.827-5.504 1.579-12.032 2.005-18.859 2.005-2.091 0-4.309-0.043-6.4-0.085-4.48-0.341-9.259-1.749-13.568-2.603-4.395-0.427-8.576-3.328-12.587-4.821-7.936-3.755-14.933-8.661-19.669-14.507-0.981-1.067-1.579-2.091-2.432-3.243 19.243-20.352 31.232-47.573 31.232-77.824 0-62.763-50.987-113.835-113.749-113.835-38.741 0-72.832 19.499-93.397 49.067l-70.699-112c73.045-81.92 137.387-185.515 137.387-185.515 44.245-60.971-33.664-168.405-33.664-168.405l-151.552 278.272-151.509-278.272c0 0-77.909 107.52-33.664 168.405 0 0 64.299 103.595 137.387 185.515l-70.656 112c-20.565-29.568-54.741-49.067-93.355-49.067-62.805 0-113.792 51.072-113.792 113.835 0 62.677 50.987 113.749 113.792 113.749 39.467 0 74.197-20.267 94.635-50.901 40.747-60.928 74.197-134.656 117.248-184.917 43.008 50.261 76.459 123.989 117.163 185.003 20.48 30.592 55.253 50.816 94.763 50.816 2.688 0 5.248-0.597 7.936-0.768 3.925 2.261 8.405 4.907 13.909 8.021 4.992 2.773 10.581 5.973 16.341 9.003 5.632 3.072 12.672 4.565 19.157 6.741 9.557 2.987 20.267 4.48 30.763 4.48zM685.013 527.104c11.648 0 23.339 4.437 32.256 13.312 17.749 17.749 17.749 46.592 0 64.341-8.917 8.875-20.523 13.312-32.171 13.312-11.648 0-23.253-4.437-32.171-13.312l-10.24-16.085c-6.144-16.256-2.816-35.243 10.24-48.256 8.832-8.917 20.437-13.312 32.085-13.312zM261.291 527.104c11.605 0 23.253 4.437 32.085 13.312 13.141 13.013 16.299 32 10.112 48.256l-10.112 16.085c-8.832 8.875-20.48 13.312-32.128 13.312s-23.339-4.437-32.213-13.312c-17.792-17.749-17.792-46.592 0-64.341 8.875-8.875 20.565-13.312 32.256-13.312zM473.131 366.592c9.301 0 16.896 7.595 16.896 16.853 0 9.387-7.509 16.896-16.896 16.896-9.344 0-16.811-7.509-16.811-16.896 0-9.259 7.509-16.853 16.811-16.853zM773.291 799.147c-19.115 0-38.443-2.816-55.979-8.149l-4.992-1.536c-7.168-2.176-18.176-5.376-30.165-11.947-3.669-2.005-7.68-4.181-11.563-6.315-59.221-4.352-113.323-34.773-147.925-83.669-1.152-1.451-2.347-2.987-3.371-4.608-16.64-24.917-31.616-50.859-46.165-76.117-14.464 25.259-29.44 51.157-46.123 76.117-1.109 1.536-2.219 3.115-3.328 4.565-37.419 52.864-97.664 84.224-162.432 84.224-109.824 0-199.125-89.301-199.125-199.083s89.344-199.168 199.125-199.168c13.184 0 26.069 1.28 38.741 3.84-43.349-57.088-75.819-107.947-83.115-119.595-73.131-105.259 16.725-239.744 35.627-265.771 16.085-22.229 41.813-35.243 69.077-35.243 1.835 0 3.669 0 5.504 0.171 29.269 1.877 55.467 18.645 69.461 44.331l76.587 140.715 76.587-140.715c13.995-25.771 40.235-42.453 69.461-44.331 1.835-0.171 3.669-0.171 5.504-0.171 27.264 0 52.949 13.056 69.077 35.243 18.901 26.027 108.757 160.597 35.584 265.771-7.253 11.563-39.765 62.507-83.072 119.595 12.587-2.56 25.643-3.84 38.741-3.84 109.781 0 199.168 89.387 199.168 199.168 0 2.56-0.085 5.077-0.171 7.637 19.925 4.096 38.315 15.189 51.2 32.341 23.339 31.104 22.869 73.941-1.365 104.32l-2.091 2.859c-0.555 0.811-1.067 1.451-1.664 2.261-4.352 6.229-11.904 16.811-24.405 27.477-14.933 13.909-31.488 23.339-44.587 30.080-11.733 5.803-20.821 8.576-26.795 10.411l-2.645 0.853c-14.208 4.992-26.539 6.229-33.451 6.827l-2.304 0.256c-0.683 0.085-2.901 0.384-3.669 0.427-6.229 0.555-12.587 0.768-18.944 0.768z" />
<glyph unicode="&#xe625;" d="M741.035 725.419c-20.821 0-51.2-6.187-83.456-32.981-44.203 20.864-93.397 32.896-145.579 32.896-188.501 0-341.333-152.832-341.333-341.333s152.832-341.333 341.333-341.333c183.979 0 341.333 141.483 341.333 341.333 0 1.835 0 210.603 0 210.603-0.683 90.069-58.667 130.816-112.299 130.816zM768 384h-218.795c-48.384 0-60.032 23.936-25.771 58.155l61.781 59.819c-23.979 15.829-52.053 23.424-81.451 23.424-39.68 0-77.013-16-105.131-44.075-28.032-27.989-43.52-65.579-43.52-105.259 0-39.808 15.445-77.269 43.52-105.344 28.117-28.075 65.451-43.563 105.131-43.563s77.013 15.36 105.173 43.477c7.552 7.68 14.251 15.872 19.968 24.704 9.472 14.72 25.429 22.741 41.771 22.741 9.216 0 18.475-2.56 26.667-7.893 23.040-14.763 29.739-45.355 14.976-68.437-9.515-14.677-20.651-28.501-33.28-41.173-46.805-46.891-109.056-72.661-175.189-72.661-66.133 0-128.384 25.771-175.104 72.576-46.805 46.763-72.576 109.013-72.576 175.189 0 66.176 25.771 128.512 72.619 175.104 46.763 46.848 108.971 72.533 175.104 72.533 55.936 0 108.843-18.603 152.149-52.437l49.237 49.408c13.269 13.312 25.685 19.669 35.883 19.669 16.085 0 26.752-15.872 26.965-45.44v-210.517zM465.92 381.867c6.912-16.725 26.88-40.533 83.285-40.533h55.424c0 0-8.96-21.504-26.197-38.699s-46.336-31.787-74.667-31.787-54.997 10.496-75.008 30.507c-19.968 20.053-31.019 46.421-31.019 74.752s11.008 48.597 30.976 68.437c20.139 20.139 46.805 24.789 75.051 24.789 0.981 0-10.496-5.248-10.496-5.248-39.893-39.851-34.261-65.536-27.349-82.219z" />
<glyph unicode="&#xe626;" d="M597.333 597.334c70.656 0 128-57.344 128-128s-57.344-128-128-128-128 57.344-128 128 57.344 128 128 128zM597.333 640c-94.123 0-170.667-76.544-170.667-170.667s76.544-170.667 170.667-170.667 170.667 76.544 170.667 170.667-76.544 170.667-170.667 170.667zM178.987 184.576c0-73.685 59.904-133.589 133.589-133.589 32.256 0 64.128 11.819 89.771 33.408l102.272 101.803c29.227-9.685 60.245-15.531 92.715-15.531 164.693 0 298.667 134.016 298.667 298.667s-133.973 298.667-298.667 298.667c-164.651 0-298.667-134.016-298.667-298.667 0-32.469 5.803-63.403 15.531-92.715l-95.787-97.408c-25.429-25.173-39.424-58.795-39.424-94.635zM454.571 256.854l-107.179-107.136c-9.515-7.979-21.504-13.355-34.816-13.355-26.624 0-48.256 21.589-48.256 48.256 0 13.269 5.419 25.344 14.165 34.005l106.325 107.989c18.56-27.52 42.24-51.2 69.76-69.76zM597.333 256c-117.632 0-213.333 95.701-213.333 213.333s95.701 213.333 213.333 213.333 213.333-95.701 213.333-213.333-95.701-213.333-213.333-213.333z" />
<glyph unicode="&#xe627;" d="M914.603 614.998l-170.581 171.52c-32.085 32.256-88.021 32.597-120.747 0.256-8.363-8.363-14.933-18.603-17.835-26.837-27.861-58.112-57.771-94.507-96.171-116.352l-9.259-4.48c-41.301-20.693-97.493-41.771-201.344-41.771-11.349 0-22.229-2.219-32.683-6.485-20.651-8.619-37.504-25.387-46.165-46.251-8.491-20.651-8.491-44.416 0-65.067 4.437-10.624 10.667-20.096 18.56-27.776l138.027-138.027-163.072-228.395 228.352 163.072 137.685-137.685c7.936-8.064 17.323-14.464 27.989-18.816 10.539-4.395 21.461-6.571 32.683-6.571s22.144 2.219 32.64 6.571c21.248 8.747 37.675 25.259 46.080 45.995 4.395 10.325 6.613 21.632 6.613 32.768 0 103.936 21.077 160.085 41.728 201.429 21.163 42.325 58.411 74.581 117.504 102.997 11.563 4.437 21.76 10.923 30.336 19.499 32.939 33.365 32.768 87.509-0.341 120.405zM690.688 410.155c-34.944-70.101-50.688-143.787-50.987-239.104l-341.035 340.949c91.264 0 162.731 14.293 230.229 46.251l10.027 4.48c59.691 29.824 105.301 80.768 144.555 163.584l167.424-172.843c-79.488-38.101-130.389-83.627-160.213-143.317z" />
<glyph unicode="&#xe628;" d="M768 682.667h-554.667c-70.4 0-128-57.6-128-128v-298.667c0-70.4 57.6-128 128-128h42.667v-128l128 128h384c70.4 0 128 57.6 128 128v298.667c0 70.4-57.6 128-128 128zM810.667 256c0-23.125-19.541-42.667-42.667-42.667h-554.667c-23.125 0-42.667 19.541-42.667 42.667v298.667c0 23.125 19.541 42.667 42.667 42.667h554.667c23.125 0 42.667-19.541 42.667-42.667v-298.667zM298.667 320c-47.104 0-85.333 38.229-85.333 85.333s38.229 85.333 85.333 85.333 85.333-38.229 85.333-85.333-38.229-85.333-85.333-85.333zM298.667 448c-23.552 0-42.667-19.115-42.667-42.667s19.115-42.667 42.667-42.667 42.667 19.115 42.667 42.667-19.115 42.667-42.667 42.667zM490.667 320c-47.104 0-85.333 38.229-85.333 85.333s38.229 85.333 85.333 85.333 85.333-38.229 85.333-85.333-38.229-85.333-85.333-85.333zM490.667 448c-23.552 0-42.667-19.115-42.667-42.667s19.115-42.667 42.667-42.667 42.667 19.115 42.667 42.667-19.115 42.667-42.667 42.667zM682.667 320c-47.104 0-85.333 38.229-85.333 85.333s38.229 85.333 85.333 85.333 85.333-38.229 85.333-85.333-38.229-85.333-85.333-85.333zM682.667 448c-23.552 0-42.667-19.115-42.667-42.667s19.115-42.667 42.667-42.667 42.667 19.115 42.667 42.667-19.115 42.667-42.667 42.667z" />
<glyph unicode="&#xe629;" d="M768 682.667h-256c0 47.104-38.229 85.333-85.333 85.333h-170.667c-70.571 0-128-57.429-128-128v-426.667c0-70.571 57.429-128 128-128h512c70.571 0 128 57.429 128 128v341.333c0 70.571-57.429 128-128 128zM256 682.667h170.667c0-47.104 38.229-85.333 85.333-85.333h256c23.552 0 42.667-19.115 42.667-42.667h-597.333v85.333c0 23.552 19.115 42.667 42.667 42.667zM768 170.667h-512c-23.552 0-42.667 19.115-42.667 42.667v298.667h597.333v-298.667c0-23.552-19.115-42.667-42.667-42.667z" />
<glyph unicode="&#xe62a;" d="M896 645.163l-165.504 165.504c-12.501 12.501-28.928 18.731-45.269 18.731-16.384 0-32.725-6.229-45.227-18.731l-466.731-466.731c-12.501-12.501-23.808-31.019-32-50.688-8.192-19.755-13.269-40.917-13.269-58.581v-192h192c17.664 0 38.741 5.077 58.496 13.269s38.229 19.499 50.731 32l466.773 466.731c12.501 12.501 18.731 28.928 18.731 45.269 0 16.384-6.229 32.725-18.731 45.227zM246.101 296.064l353.835 353.835 52.565-52.565-353.835-353.835-52.565 52.565zM320 128h-64l-42.667 42.667v64c0 3.285 1.408 13.013 6.741 25.813 0.427 0.853 126.592-125.355 126.592-125.355-13.739-5.717-23.381-7.125-26.667-7.125zM381.397 160.768l-52.565 52.565 353.835 353.835 52.565-52.565-353.835-353.835zM765.397 544.768l-135.339 135.339 55.168 55.168 135.253-135.339-55.083-55.168z" />
<glyph unicode="&#xe62b;" d="M860.885 775.552c-16.299 16.341-38.144 25.003-60.373 25.003-10.667 0-21.461-2.005-31.744-6.144-189.824-76.245-332.459-203.093-448.725-399.232-4.352-7.339-6.955-15.147-8.917-23.125-58.88-9.173-110.933-38.528-146.859-85.035-39.083-50.56-55.253-114.987-45.483-181.504l9.216-62.848 62.848-9.259c12.501-1.835 25.131-2.731 37.547-2.731 117.035 0 211.157 81.451 228.992 194.731 8.021 2.005 15.829 4.907 23.211 9.301 196.181 116.395 323.029 258.944 399.147 448.725 12.715 31.701 5.248 67.968-18.859 92.117zM228.395 116.011c-8.192 0-16.597 0.683-25.173 1.877-13.184 89.771 45.013 162.56 128 171.563l43.563-43.563c-8.192-75.093-68.48-129.877-146.389-129.877zM437.035 308.096l-43.563 43.563c16.213 27.349 33.024 52.608 50.261 76.971 1.152-1.749 69.931-70.528 69.931-70.528-24.235-17.109-49.408-33.877-76.629-50.005zM548.309 383.744c0 0-77.696 76.843-80.171 77.824 91.605 118.784 198.443 199.893 332.416 253.568-53.547-133.419-134.144-239.915-252.245-331.392z" />
<glyph unicode="&#xe62c;" d="M834.987 568.491c-16.683 6.144-107.179 17.323-165.675 23.893 9.173 53.547 13.355 102.613 13.355 154.283 0 58.837-47.872 106.667-106.667 106.667s-106.667-47.829-106.667-106.667c0-80-28.416-116.821-68.949-157.824-23.381 30.805-60.032 51.157-101.717 51.157-70.571 0-128-57.429-128-128v-256c0-70.571 57.429-128 128-128 32.213 0 61.355 12.373 83.84 32.085 2.731-2.645 4.992-6.016 8.021-8.235 40.96-31.403 156.459-66.517 249.515-66.517 80.171 0 111.275 12.501 138.795 23.595 4.437 1.749 8.832 3.584 13.483 5.248 35.584 13.013 67.243 52.352 74.069 93.867l28.416 254.891c7.381 44.245-18.901 90.667-59.819 105.557zM298.667 213.334c-23.509 0-42.667 19.115-42.667 42.667v256c0 23.552 19.157 42.667 42.667 42.667s42.667-19.115 42.667-42.667v-256c0-23.552-19.157-42.667-42.667-42.667zM781.952 219.734c-1.579-9.557-12.459-23.083-18.901-25.429-5.589-2.091-10.837-4.224-16.043-6.229-23.253-9.344-43.349-17.408-107.008-17.408-81.664 0-175.701 32.128-197.632 48.896-6.741 5.12-15.701 24.064-15.701 36.437v212.48c0.128 2.005 2.176 27.989 30.165 55.979 38.955 38.997 97.835 97.877 97.835 222.208 0 11.733 9.6 21.333 21.333 21.333s21.333-9.6 21.333-21.333c0-60.032-6.229-116.48-20.437-183.168l-12.672-59.563 56.363 8.021c25.728-2.133 167.808-19.072 184.917-23.467 2.475-1.28 5.632-7.808 4.736-13.781l-28.288-254.976z" />
<glyph unicode="&#xe62d;" d="M910.037 631.168c0 51.712-20.139 100.352-56.704 136.832s-85.163 56.704-136.832 56.704c-51.157 0-99.285-19.755-135.68-55.637-1.152-1.067-339.925-339.797-339.925-339.797-15.915-15.915-30.592-38.827-41.259-64.597-8.32-20.181-84.437-250.155-99.669-296.064-5.077-15.275-1.067-32.171 10.325-43.563 8.064-8.064 18.987-12.501 30.165-12.501 4.48 0 9.003 0.768 13.397 2.176 45.909 15.147 275.84 91.349 296.021 99.669 25.728 10.581 48.64 25.259 64.64 41.259l92.032 91.989c1.067-0.043 2.133-0.427 3.243-0.427 27.307 0 54.613 10.411 75.477 31.232l192 192c29.696 29.653 37.845 72.491 25.088 109.739 4.565 16.469 7.68 33.408 7.68 50.987zM403.84 188.331c-17.323-6.101-48.853-16.768-86.955-29.483l-72.704 72.704c12.843 38.144 23.509 69.717 29.483 86.955l130.176-130.176zM229.035 186.326l42.624-42.624c-21.035-6.997-42.667-14.208-63.915-21.291 7.083 21.248 14.293 42.923 21.291 63.915zM557.483 319.147l-103.253-103.253c-2.603-2.603-6.443-5.077-10.027-7.68l-150.613 150.571c2.603 3.584 5.12 7.509 7.68 9.984l304.256 304.256 116.523-116.523-157.44-157.44c-21.888-21.845-23.424-54.997-7.125-79.915zM816.896 530.731l-192-192c-4.181-4.224-9.643-6.229-15.104-6.229s-10.923 2.091-15.104 6.229c-8.32 8.277-8.32 21.845 0 30.165l192 192c8.277 8.277 21.845 8.277 30.165 0 8.363-8.32 8.405-21.803 0.043-30.165zM821.461 605.995c-22.144 7.168-47.275 2.645-64.896-14.933l-4.352-4.352-116.523 116.523 3.328 3.328c41.984 41.813 113.152 41.856 153.941 0.981 20.437-20.437 31.701-47.616 31.701-76.501 0.043-8.491-1.28-16.811-3.2-25.045z" />
<glyph unicode="&#xe62e;" d="M810.667 674.816v7.851c0 70.699-57.301 128-128 128s-128-57.301-128-128h-85.333c0 70.699-57.301 128-128 128s-128-57.301-128-128v-7.851c-49.536-17.707-85.333-64.597-85.333-120.149v-384c0-70.571 57.429-128 128-128h512c70.571 0 128 57.429 128 128v384c0 55.552-35.797 102.443-85.333 120.149zM640 682.667c0 23.552 19.072 42.667 42.667 42.667s42.667-19.115 42.667-42.667v-85.333c0-23.552-19.072-42.667-42.667-42.667s-42.667 19.115-42.667 42.667v85.333zM298.667 682.667c0 23.552 19.072 42.667 42.667 42.667s42.667-19.115 42.667-42.667v-85.333c0-23.552-19.072-42.667-42.667-42.667s-42.667 19.115-42.667 42.667v85.333zM810.667 170.667c0-23.509-19.115-42.667-42.667-42.667h-512c-23.552 0-42.667 19.157-42.667 42.667v256h597.333v-256zM810.667 469.334h-597.333v85.333c0 23.509 19.115 42.667 42.667 42.667 0-47.104 38.229-85.333 85.333-85.333s85.333 38.229 85.333 85.333h170.667c0-47.104 38.229-85.333 85.333-85.333s85.333 38.229 85.333 85.333c23.552 0 42.667-19.157 42.667-42.667v-85.333z" />
<glyph unicode="&#xe62f;" d="M853.333 85.334h-682.667c-70.571 0-128 57.429-128 128v426.667c0 70.571 57.429 128 128 128h682.667c70.571 0 128-57.429 128-128v-426.667c0-70.571-57.429-128-128-128zM170.667 682.667c-23.509 0-42.667-19.157-42.667-42.667v-426.667c0-23.509 19.157-42.667 42.667-42.667h682.667c23.509 0 42.667 19.157 42.667 42.667v426.667c0 23.509-19.157 42.667-42.667 42.667h-682.667zM426.667 298.667h-170.667c-23.595 0-42.667 19.115-42.667 42.667s19.072 42.667 42.667 42.667h170.667c23.595 0 42.667-19.115 42.667-42.667s-19.072-42.667-42.667-42.667zM426.667 469.334h-170.667c-23.595 0-42.667 19.115-42.667 42.667s19.072 42.667 42.667 42.667h170.667c23.595 0 42.667-19.115 42.667-42.667s-19.072-42.667-42.667-42.667zM768 490.667c0-47.128-38.205-85.333-85.333-85.333s-85.333 38.205-85.333 85.333c0 47.128 38.205 85.333 85.333 85.333 47.128 0 85.333-38.205 85.333-85.333zM682.667 368.811c-66.645 0-106.667-30.507-106.667-60.971 0-15.232 40.021-30.507 106.667-30.507 62.549 0 106.667 15.232 106.667 30.507 0 30.464-41.813 60.971-106.667 60.971z" />
<glyph unicode="&#xe630;" d="M725.333 42.667h-341.333c-70.571 0-128 57.429-128 128v512c0 70.571 57.429 128 128 128h341.333c70.571 0 128-57.429 128-128v-512c0-70.571-57.429-128-128-128zM384 725.334c-23.509 0-42.667-19.157-42.667-42.667v-512c0-23.509 19.157-42.667 42.667-42.667h341.333c23.509 0 42.667 19.157 42.667 42.667v512c0 23.509-19.157 42.667-42.667 42.667h-341.333zM469.333 469.334c0-23.564-19.103-42.667-42.667-42.667-23.564 0-42.667 19.103-42.667 42.667 0 23.564 19.103 42.667 42.667 42.667 23.564 0 42.667-19.103 42.667-42.667zM597.333 469.334c0-23.564-19.103-42.667-42.667-42.667s-42.667 19.103-42.667 42.667c0 23.564 19.103 42.667 42.667 42.667 23.564 0 42.667-19.103 42.667-42.667zM725.333 469.334c0-23.564-19.103-42.667-42.667-42.667s-42.667 19.103-42.667 42.667c0 23.564 19.103 42.667 42.667 42.667 23.564 0 42.667-19.103 42.667-42.667zM469.333 341.334c0-23.564-19.103-42.667-42.667-42.667-23.564 0-42.667 19.103-42.667 42.667 0 23.564 19.103 42.667 42.667 42.667 23.564 0 42.667-19.103 42.667-42.667zM597.333 341.334c0-23.564-19.103-42.667-42.667-42.667s-42.667 19.103-42.667 42.667c0 23.564 19.103 42.667 42.667 42.667 23.564 0 42.667-19.103 42.667-42.667zM725.333 341.334c0-23.564-19.103-42.667-42.667-42.667s-42.667 19.103-42.667 42.667c0 23.564 19.103 42.667 42.667 42.667 23.564 0 42.667-19.103 42.667-42.667zM469.333 213.334c0-23.564-19.103-42.667-42.667-42.667-23.564 0-42.667 19.103-42.667 42.667 0 23.564 19.103 42.667 42.667 42.667 23.564 0 42.667-19.103 42.667-42.667zM597.333 213.334c0-23.564-19.103-42.667-42.667-42.667s-42.667 19.103-42.667 42.667c0 23.564 19.103 42.667 42.667 42.667 23.564 0 42.667-19.103 42.667-42.667zM725.333 213.334c0-23.564-19.103-42.667-42.667-42.667s-42.667 19.103-42.667 42.667c0 23.564 19.103 42.667 42.667 42.667 23.564 0 42.667-19.103 42.667-42.667zM682.667 640v-42.667h-256v42.667h256zM725.333 682.667h-341.334v-128.001h341.333v128.001z" />
<glyph unicode="&#xe631;" d="M725.333 810.667h-426.667c-70.571 0-128-57.429-128-128v-512c0-70.571 57.429-128 128-128h426.667c70.571 0 128 57.429 128 128v512c0 70.571-57.429 128-128 128zM384 725.334h256v-42.667c0-23.509-19.157-42.667-42.667-42.667h-170.667c-23.509 0-42.667 19.157-42.667 42.667v42.667zM768 170.667c0-23.509-19.157-42.667-42.667-42.667h-426.667c-23.509 0-42.667 19.157-42.667 42.667v512c0 23.509 19.157 42.667 42.667 42.667h42.667c0-11.179 0-25.643 0-42.667 0-46.933 38.4-85.333 85.333-85.333h170.667c46.933 0 85.333 38.4 85.333 85.333 0 17.024 0 31.488 0 42.667h42.667c23.509 0 42.667-19.157 42.667-42.667v-512zM682.667 213.334h-341.333c-11.776 0-21.333 9.557-21.333 21.333s9.557 21.333 21.333 21.333h341.333c11.776 0 21.333-9.557 21.333-21.333s-9.557-21.333-21.333-21.333zM682.667 341.334h-341.333c-11.776 0-21.333 9.557-21.333 21.333s9.557 21.333 21.333 21.333h341.333c11.776 0 21.333-9.557 21.333-21.333s-9.557-21.333-21.333-21.333zM682.667 469.334h-341.333c-11.776 0-21.333 9.557-21.333 21.333s9.557 21.333 21.333 21.333h341.333c11.776 0 21.333-9.557 21.333-21.333s-9.557-21.333-21.333-21.333z" />
<glyph unicode="&#xe632;" d="M810.667 597.334h-100.352c9.344 19.499 15.019 41.003 15.019 64 0 82.347-66.987 149.333-149.333 149.333-41.771 0-79.531-17.365-106.667-45.141-27.136 27.776-64.896 45.141-106.667 45.141-82.347 0-149.333-66.987-149.333-149.333 0-22.997 5.675-44.501 15.019-64h-100.352c-23.595 0-42.667-19.115-42.667-42.667v-170.667c0-23.552 19.072-42.667 42.667-42.667v-213.333c0-70.571 57.429-128 128-128h426.667c70.571 0 128 57.429 128 128v213.333c23.595 0 42.667 19.115 42.667 42.667v170.667c0 23.552-19.072 42.667-42.667 42.667zM768 426.667h-213.333v85.333h213.333v-85.333zM426.667 640h85.333v-42.667h-85.333v42.667zM512 512v-85.333h-85.333v85.333h85.333zM576 725.334c35.285 0 64-28.715 64-64s-28.715-64-64-64c-7.552 0-14.677 1.664-21.333 4.139v38.528c0 22.229-17.237 39.979-38.955 41.899 8.619 25.173 32.256 43.435 60.288 43.435zM298.667 661.334c0 35.285 28.715 64 64 64 28.032 0 51.669-18.261 60.288-43.435-21.717-1.92-38.955-19.669-38.955-41.899v-38.528c-6.656-2.475-13.781-4.139-21.333-4.139-35.285 0-64 28.715-64 64zM384 512v-85.333h-213.333v85.333h213.333zM256 85.334c-23.509 0-42.667 19.157-42.667 42.667v256h170.667v-298.667h-128zM426.667 85.334v298.667h85.333v-298.667h-85.333zM682.667 85.334h-128v298.667h170.667v-256c0-23.509-19.157-42.667-42.667-42.667z" />
<glyph unicode="&#xe633;" d="M841.173 200.491c-0.725 0.768-73.259 79.104-73.813 269.653-0.384 111.232-72.107 205.824-171.477 240.683 0.768 4.736 1.451 9.515 1.451 14.507 0 47.061-38.229 85.333-85.333 85.333s-85.333-38.272-85.333-85.333c0-4.949 0.683-9.728 1.451-14.421-99.669-34.816-171.477-129.536-171.477-240.896 0-190.379-73.003-268.629-73.429-269.056-12.245-12.203-15.957-30.549-9.387-46.549s22.229-26.411 39.509-26.411h134.101c19.072-73.387 85.291-128 164.565-128s145.493 54.613 164.565 128h134.101c17.067 0 32.341 10.368 39.040 26.027s3.243 34.091-8.533 46.464zM512 640c93.397 0 169.728-76.331 169.984-170.112 0.085-31.061 1.963-59.563 5.035-85.888h-349.867c3.029 26.325 4.821 54.869 4.821 86.016 0.043 93.696 76.288 169.984 170.027 169.984zM512 85.334c-31.445 0-58.667 17.28-73.472 42.667h146.901c-14.763-25.387-41.984-42.667-73.429-42.667zM290.731 213.334c15.019 31.403 30.080 73.856 40.021 128h362.752c9.984-54.144 25.088-96.597 40.021-128h-442.795z" />
<glyph unicode="&#xe634;" d="M554.667 682.667c0-23.564-19.103-42.667-42.667-42.667-23.564 0-42.667 19.103-42.667 42.667 0 23.564 19.103 42.667 42.667 42.667 23.564 0 42.667-19.103 42.667-42.667zM844.501 422.571c5.717 14.507 8.832 30.251 8.832 46.763 0 70.571-57.429 128-128 128h-18.005c11.648 26.411 18.005 55.339 18.005 85.333 0 117.632-95.701 213.333-213.333 213.333s-213.333-95.701-213.333-213.333c0-29.995 6.357-58.923 18.005-85.333h-18.005c-70.571 0-128-57.429-128-128 0-16.512 3.115-32.256 8.832-46.763-31.232-23.381-51.499-60.672-51.499-102.571 0-211.755 172.245-384 384-384s384 172.245 384 384c0 41.899-20.267 79.189-51.499 102.571zM512 21.334c-164.651 0-298.667 134.016-298.667 298.667 0 23.595 19.072 42.667 42.667 42.667s42.667-19.072 42.667-42.667c0-102.997 73.429-189.184 170.667-208.981v315.648h-170.667c-23.595 0-42.667 19.072-42.667 42.667s19.072 42.667 42.667 42.667h170.667v50.517c-49.579 17.621-85.333 64.469-85.333 120.149 0 70.699 57.301 128 128 128s128-57.301 128-128c0-55.68-35.755-102.528-85.333-120.149v-50.517h170.667c23.595 0 42.667-19.072 42.667-42.667s-19.072-42.667-42.667-42.667h-170.667v-315.648c97.237 19.84 170.667 105.984 170.667 208.981 0 23.595 19.072 42.667 42.667 42.667s42.667-19.072 42.667-42.667c0-164.651-134.016-298.667-298.667-298.667zM312.363 384h114.304v-211.712c-51.499 29.909-85.333 85.717-85.333 147.712 0 25.472-11.221 48.341-28.971 64zM711.637 384c-17.749-15.659-28.971-38.528-28.971-64 0-61.995-33.835-117.803-85.333-147.712v211.712h114.304z" />
<glyph unicode="&#xe635;" d="M747.093 680.022c-34.731 34.773-84.48 44.8-128.427 31.104v14.208c0 70.656-57.344 128-128 128s-128-57.344-128-128v-14.165c-43.904 13.611-93.653 3.627-128.427-31.147-68.48-68.523-106.24-159.616-106.24-256.469s37.76-187.947 106.24-256.469c68.437-68.48 159.531-106.197 256.427-106.197s187.947 37.717 256.427 106.197c68.48 68.48 106.24 159.573 106.24 256.469s-37.76 187.947-106.24 256.469zM448 725.334c0 23.552 19.072 42.667 42.667 42.667s42.667-19.115 42.667-42.667v-213.333c0-23.552-19.072-42.667-42.667-42.667s-42.667 19.115-42.667 42.667v213.333zM405.333 563.072v-51.072c0-47.104 38.229-85.333 85.333-85.333s85.333 38.229 85.333 85.333v50.432c4.053-12.117 10.581-23.637 20.267-33.28 28.203-28.203 43.733-65.707 43.733-105.6s-15.531-77.397-43.733-105.643c-56.405-56.363-154.752-56.363-211.157 0-28.245 28.245-43.776 65.749-43.776 105.643s15.531 77.397 43.733 105.643c9.856 9.813 16.341 21.504 20.267 33.877zM686.763 227.414c-52.395-52.395-121.984-81.195-196.096-81.195s-143.701 28.843-196.096 81.195c-52.352 52.395-81.237 122.027-81.237 196.139s28.885 143.744 81.237 196.139c16.683 16.683 43.648 16.683 60.331 0s16.683-43.648 0-60.331c-36.267-36.309-56.235-84.523-56.235-135.808s19.968-99.541 56.235-135.808c36.267-36.267 84.437-56.192 135.765-56.192s99.499 19.968 135.765 56.192c36.309 36.267 56.235 84.48 56.235 135.808s-19.968 99.541-56.235 135.808c-16.683 16.683-16.683 43.648 0 60.331s43.648 16.683 60.331 0c52.352-52.437 81.237-122.069 81.237-196.139s-28.885-143.744-81.237-196.139z" />
<glyph unicode="&#xe636;" d="M725.333 768h-426.667c-70.571 0-128-57.429-128-128v-469.333c0-70.571 57.429-128 128-128h426.667c70.571 0 128 57.429 128 128v469.333c0 70.571-57.429 128-128 128zM768 170.667c0-23.509-19.115-42.667-42.667-42.667h-426.667c-23.552 0-42.667 19.157-42.667 42.667v310.613c12.629-7.424 27.093-11.947 42.667-11.947h64c0-82.347 66.987-149.333 149.333-149.333s149.333 66.987 149.333 149.333h64c15.573 0 30.037 4.523 42.667 11.904v-310.571zM405.333 469.334h213.333c0-58.795-47.829-106.667-106.667-106.667s-106.667 47.872-106.667 106.667zM768 554.667c0-23.509-19.115-42.667-42.667-42.667h-426.667c-23.552 0-42.667 19.157-42.667 42.667v85.333c0 23.509 19.115 42.667 42.667 42.667h426.667c23.552 0 42.667-19.157 42.667-42.667v-85.333z" />
<glyph unicode="&#xe637;" d="M725.333 768h-384c-23.467 0-42.667-19.2-42.667-42.667v-512c0-23.467 19.2-42.667 42.667-42.667h149.333c0-23.595 19.115-42.667 42.667-42.667s42.667 19.072 42.667 42.667h149.333c23.467 0 42.667 19.2 42.667 42.667v512c0 23.467-19.2 42.667-42.667 42.667zM725.333 213.334h-384v512h384v-512zM768 896h-469.333c-70.571 0-128-57.429-128-128v-640c0-70.571 57.429-128 128-128h469.333c70.571 0 128 57.429 128 128v640c0 70.571-57.429 128-128 128zM810.667 128c0-23.509-19.157-42.667-42.667-42.667h-469.333c-23.509 0-42.667 19.157-42.667 42.667v640c0 23.509 19.157 42.667 42.667 42.667h469.333c23.509 0 42.667-19.157 42.667-42.667v-640z" />
<glyph unicode="&#xe638;" d="M640 810.667h-298.667c-70.571 0-128-57.429-128-128v-512c0-70.571 57.429-128 128-128h298.667c70.571 0 128 57.429 128 128v512c0 70.571-57.429 128-128 128zM682.667 170.667c0-23.509-19.157-42.667-42.667-42.667h-298.667c-23.509 0-42.667 19.157-42.667 42.667v512c0 23.509 19.157 42.667 42.667 42.667h298.667c23.509 0 42.667-19.157 42.667-42.667v-512zM597.333 682.667h-213.333c-23.467 0-42.667-19.2-42.667-42.667v-384c0-23.467 19.2-42.667 42.667-42.667h64c0-23.595 19.115-42.667 42.667-42.667s42.667 19.072 42.667 42.667h64c23.467 0 42.667 19.2 42.667 42.667v384c0 23.467-19.2 42.667-42.667 42.667zM597.333 256h-213.333v384h213.333v-384z" />
<glyph unicode="&#xe639;" d="M938.197 253.91c0.384 13.44 0.469 28.032 0.469 44.757v384c0 70.571-57.429 128-128 128h-597.333c-70.571 0-128-57.429-128-128v-384c0-16.427 0.085-31.147 0.512-44.757-48.853-9.728-85.845-52.907-85.845-104.576 0-58.795 47.872-106.667 106.667-106.667h810.667c58.795 0 106.667 47.872 106.667 106.667 0 51.669-36.949 94.805-85.803 104.576zM170.667 682.667c0 23.509 19.157 42.667 42.667 42.667h597.333c23.509 0 42.667-19.157 42.667-42.667v-384c0-16.555-0.213-30.976-0.597-42.667h-42.069v384c0 23.467-19.2 42.667-42.667 42.667h-512c-23.467 0-42.667-19.2-42.667-42.667v-384h-41.813c-0.512 11.264-0.853 25.557-0.853 42.667v384zM768 256h-512v384h512v-384zM917.333 128h-810.667c-11.563 0-21.333 9.771-21.333 21.333s9.771 21.333 21.333 21.333h810.667c11.563 0 21.333-9.771 21.333-21.333s-9.771-21.333-21.333-21.333z" />
<glyph unicode="&#xe63a;" d="M896 896h-768c-70.571 0-128-57.429-128-128v-469.333c0-70.571 57.429-128 128-128h256v-85.333h-128c-23.552 0-42.667-19.115-42.667-42.667s19.115-42.667 42.667-42.667h512c23.552 0 42.667 19.115 42.667 42.667s-19.115 42.667-42.667 42.667h-128v85.333h256c70.571 0 128 57.429 128 128v469.333c0 70.571-57.429 128-128 128zM597.333 85.334h-170.667v85.333h170.667v-85.333zM938.667 298.667c0-23.509-19.157-42.667-42.667-42.667h-768c-23.509 0-42.667 19.157-42.667 42.667v469.333c0 23.509 19.157 42.667 42.667 42.667h768c23.509 0 42.667-19.157 42.667-42.667v-469.333zM853.333 768h-682.667c-23.467 0-42.667-19.2-42.667-42.667v-341.333c0-23.467 19.2-42.667 42.667-42.667h682.667c23.467 0 42.667 19.2 42.667 42.667v341.333c0 23.467-19.2 42.667-42.667 42.667zM853.333 384h-682.667v341.333h682.667v-341.333z" />
<glyph unicode="&#xe63b;" d="M384 256c0-23.564-19.103-42.667-42.667-42.667s-42.667 19.103-42.667 42.667c0 23.564 19.103 42.667 42.667 42.667 23.564 0 42.667-19.103 42.667-42.667zM884.608 739.968c-16.725 16.128-43.221 16.085-59.691-0.384 16.512 16.469 16.555 43.008 0.427 59.733-45.995 33.792-102.613 54.016-164.011 54.016-153.173 0-277.333-124.16-277.333-277.333 0-5.504 0.981-10.752 1.323-16.171-14.379-10.197-123.435-91.605-181.675-140.843-48.427-42.24-75.648-101.333-75.648-162.987 0-117.632 95.701-213.333 213.333-213.333 62.507 0 121.771 27.733 162.603 76.117 50.048 58.667 131.413 167.381 141.525 180.437 5.12 0.427 10.368-0.555 15.872-0.555 153.173 0 277.333 124.16 277.333 277.333 0 61.44-20.224 118.016-54.059 163.968zM341.333 128c-70.656 0-128 57.301-128 128 0 39.253 18.048 73.899 45.397 97.792 101.035 85.419 154.325 117.248 218.24 171.307-4.48 16.299-7.637 33.152-7.637 50.901 0 106.027 85.973 192 192 192 20.053 0 38.997-3.925 57.131-9.643l-121.131-118.357 21.333-106.667 106.667-21.333 119.68 116.949c4.907-16.896 8.32-34.432 8.32-52.949 0-106.027-85.973-192-192-192-17.749 0-34.603 3.157-50.901 7.68-54.059-63.915-85.888-117.248-171.691-217.813-23.509-27.819-58.155-45.867-97.408-45.867zM827.051 671.104l-115.413-112.853-56.704 11.349-11.221 56.064 116.309 113.621c27.776-16.768 50.773-40.064 67.029-68.181z" />
<glyph unicode="&#xe63c;" d="M853.333 458.667v74.667c0 82.347-66.987 149.333-149.333 149.333h-32.384c-6.016 84.565-83.328 149.333-180.949 149.333s-174.933-64.768-180.949-149.333h-32.384c-82.347 0-149.333-66.987-149.333-149.333v-74.667c0-43.179 21.931-78.805 55.253-95.829-15.275-8.021-28.501-20.011-38.144-35.2-11.179-17.664-17.109-38.741-17.109-60.971v-117.333c0-82.347 66.987-149.333 149.333-149.333h117.333c41.643 0 78.123 21.205 95.659 55.424 0.555-1.024 1.024-1.963 1.536-2.816 18.56-32.939 54.016-52.608 94.805-52.608h117.333c82.347 0 149.333 66.987 149.333 149.333v117.333c0 43.221-21.973 78.891-55.339 95.872 33.109 17.536 55.339 53.589 55.339 96.128zM768 149.334c0-35.2-28.8-64-64-64h-117.333c-15.189 0-30.891 9.216-16.683 32.683 10.496 11.947 16.683 26.411 16.683 41.984 0 41.259-42.965 74.667-96 74.667s-96-33.408-96-74.667c0-12.8 4.053-24.576 10.88-35.115 21.632-28.715 5.803-39.552-10.88-39.552h-117.333c-35.2 0-64 28.8-64 64v117.333c0 11.008 4.821 22.229 16.384 22.229 4.437 0 9.771-1.664 16.299-5.547 11.947-10.496 26.453-16.683 41.984-16.683 41.216 0 74.667 43.008 74.667 96s-33.451 96-74.667 96c-12.8 0-24.576-4.053-35.072-10.88-10.112-7.296-18.005-10.368-23.979-10.368-11.093 0-15.616 10.453-15.616 21.248v74.667c0 35.2 28.8 64 64 64h117.333c16.683 0 32.512 10.837 10.368 39.552-6.315 10.539-10.368 22.315-10.368 35.115 0 41.259 42.965 74.667 96 74.667s96-33.408 96-74.667c0-15.573-6.187-30.037-16.683-41.984-14.208-23.467 1.493-32.683 16.683-32.683h117.333c35.2 0 64-28.8 64-64v-74.667c0-11.008-4.821-22.229-16.384-22.229-4.437 0-9.771 1.664-16.299 5.547-11.947 10.496-26.453 16.683-41.984 16.683-41.216 0-74.667-43.008-74.667-96s33.451-96 74.667-96c12.8 0 24.576 4.053 35.072 10.88 10.112 7.296 18.005 10.411 23.979 10.368 11.051 0 15.573-10.453 15.573-21.248v-117.333zM213.333 397.056c4.949-1.365 10.069-2.304 15.573-2.304 14.592 0 29.141 5.077 44.288 15.531 0.981 0.555 2.005 1.109 2.944 1.749 4.139 2.688 8.021 3.968 11.861 3.968 15.104 0 32-22.827 32-53.333s-16.896-53.333-32-53.333c-4.608 0-9.259 2.048-13.824 6.059-1.92 1.664-3.925 3.157-6.101 4.437-12.843 7.808-25.771 11.733-38.357 11.733-5.717 0-11.136-0.981-16.384-2.517v68.011zM752.427 330.582c-14.592 0-29.141-5.077-44.288-15.531-0.981-0.555-2.005-1.109-2.944-1.749-4.139-2.688-8.021-3.968-11.819-3.968-15.104 0-32 22.827-32 53.333s16.896 53.333 32 53.333c4.608 0 9.259-2.048 13.824-6.059 1.92-1.664 3.925-3.157 6.101-4.437 12.885-7.808 25.771-11.733 38.357-11.733 5.803 0 11.179 1.067 16.384 2.645v-68.139c-4.992 1.365-10.112 2.304-15.616 2.304zM456.192 85.334c4.309 14.763 3.968 34.816-13.013 59.563-0.597 1.067-1.195 2.133-1.877 3.157-2.645 4.181-4.011 8.064-4.011 11.904 0 15.104 22.784 32 53.333 32s53.333-16.896 53.333-32c0-4.608-2.048-9.259-6.101-13.867-1.621-1.877-3.115-3.883-4.437-6.059-13.867-22.912-13.269-41.771-9.387-54.784h-67.84z" />
<glyph unicode="&#xe63d;" d="M725.333 725.334v85.333c0 23.552-19.115 42.667-42.667 42.667h-384c-23.552 0-42.667-19.115-42.667-42.667v-85.333c-70.571 0-128-57.429-128-128v-426.667c0-70.571 57.429-128 128-128h469.333c70.571 0 128 57.429 128 128v426.667c0 70.571-57.429 128-128 128zM341.333 768h298.667v-213.333h-298.667v213.333zM256 640v-128c0-23.552 19.115-42.667 42.667-42.667h384c23.552 0 42.667 19.115 42.667 42.667v128c23.509 0 42.667-19.157 42.667-42.667v-106.667c0-35.285-28.715-64-64-64h-426.667c-35.285 0-64 28.715-64 64v106.667c0 23.509 19.157 42.667 42.667 42.667zM725.333 128h-469.333c-23.509 0-42.667 19.157-42.667 42.667v235.221c17.877-13.568 39.893-21.888 64-21.888h426.667c24.107 0 46.123 8.32 64 21.888v-235.221c0-23.509-19.157-42.667-42.667-42.667zM576 640h-170.667c-11.776 0-21.333-9.557-21.333-21.333s9.557-21.333 21.333-21.333h170.667c11.776 0 21.333 9.557 21.333 21.333s-9.557 21.333-21.333 21.333zM640 256h-298.667c-11.776 0-21.333-9.557-21.333-21.333s9.557-21.333 21.333-21.333h298.667c11.776 0 21.333 9.557 21.333 21.333s-9.557 21.333-21.333 21.333zM576 725.334h-170.667c-11.776 0-21.333-9.557-21.333-21.333s9.557-21.333 21.333-21.333h170.667c11.776 0 21.333 9.557 21.333 21.333s-9.557 21.333-21.333 21.333z" />
<glyph unicode="&#xe63e;" d="M533.333 704c-11.776 0-21.333-9.557-21.333-21.333s9.557-21.333 21.333-21.333c46.208 0 83.797-37.589 83.797-83.797 0-11.776 9.557-21.333 21.333-21.333s21.333 9.557 21.333 21.333c0 69.717-56.747 126.464-126.464 126.464zM533.333 896c-176.469 0-320-143.531-320-320 0-63.403 18.773-124.672 54.357-177.707 0.981-2.005 2.091-3.925 3.413-5.76 77.867-111.189 91.563-146.347 91.563-179.2v-128c0-23.552 19.115-42.667 42.667-42.667h85.333c0-11.093 4.693-22.187 12.373-30.293 8.107-7.68 19.2-12.373 30.293-12.373 11.093 0 22.187 4.693 30.293 12.373 7.68 8.107 12.373 19.2 12.373 30.293h85.333c23.552 0 42.667 19.115 42.667 42.667v128c0 33.365 13.611 68.693 90.965 179.157 38.187 54.4 58.368 117.845 58.368 183.509 0 176.469-143.531 320-320 320zM618.667 128h-170.667v42.667h170.667v-42.667zM725.12 441.472c-62.549-89.301-91.435-140.331-101.76-185.472h-47.36v85.333c0 23.552-19.115 42.667-42.667 42.667s-42.667-19.115-42.667-42.667v-85.333h-47.488c-10.24 43.947-38.315 93.867-98.389 180.053-0.939 1.877-2.048 3.712-3.285 5.504-28.032 39.851-42.837 86.357-42.837 134.443 0 129.408 105.259 234.667 234.667 234.667s234.667-105.259 234.667-234.667c0-48.043-14.805-94.549-42.88-134.528z" />
<glyph unicode="&#xe63f;" d="M784.341 754.432c-15.957 6.613-34.304 2.944-46.507-9.259-53.931-53.888-141.696-53.931-195.669 0-87.253 87.168-229.12 87.168-316.331 0-8.021-7.979-12.501-18.859-12.501-30.165v-554.667c0-23.552 19.115-42.667 42.667-42.667s42.667 19.115 42.667 42.667v194.261c54.229 42.539 133.163 38.869 183.168-11.093 87.253-87.168 229.163-87.168 316.331 0 8.021 8.021 12.501 18.859 12.501 30.165v341.333c0 17.28-10.411 32.811-26.325 39.424zM481.835 684.843c65.707-65.664 162.475-81.835 243.499-48.555v-98.603c-61.696-39.083-144.512-31.957-198.229 21.76-61.781 61.739-153.515 74.368-228.437 39.552v96.939c54.229 42.539 133.163 38.912 183.168-11.093zM542.165 403.883c-43.605 43.563-100.907 65.365-158.165 65.365-29.056 0-58.069-5.589-85.333-16.811v98.603c61.696 39.083 144.512 31.957 198.229-21.76 39.467-39.424 91.264-59.136 143.104-59.136 29.312 0 58.283 6.997 85.333 19.584v-96.939c-54.272-42.539-133.205-38.869-183.168 11.093z" />
<glyph unicode="&#xe640;" d="M810.667 810.667h-469.333c-70.571 0-128-57.429-128-128v-42.667h-42.667c-23.595 0-42.667-19.115-42.667-42.667s19.072-42.667 42.667-42.667h42.667v-85.333h-42.667c-23.595 0-42.667-19.115-42.667-42.667s19.072-42.667 42.667-42.667h42.667v-85.333h-42.667c-23.595 0-42.667-19.115-42.667-42.667s19.072-42.667 42.667-42.667h42.667v-42.667c0-70.571 57.429-128 128-128h469.333c70.571 0 128 57.429 128 128v512c0 70.571-57.429 128-128 128zM298.667 682.667c0 23.509 19.157 42.667 42.667 42.667v-85.333h-42.667v42.667zM298.667 554.667h42.667v-85.333h-42.667v85.333zM298.667 384h42.667v-85.333h-42.667v85.333zM298.667 170.667v42.667h42.667v-85.333c-23.509 0-42.667 19.157-42.667 42.667zM853.333 170.667c0-23.509-19.157-42.667-42.667-42.667h-426.667v597.333h426.667c23.509 0 42.667-19.157 42.667-42.667v-512zM682.667 490.667c0-47.128-38.205-85.333-85.333-85.333-47.128 0-85.333 38.205-85.333 85.333 0 47.128 38.205 85.333 85.333 85.333 47.128 0 85.333-38.205 85.333-85.333zM597.333 368.811c-66.645 0-106.667-30.507-106.667-60.971 0-15.232 40.021-30.507 106.667-30.507 62.549 0 106.667 15.232 106.667 30.507 0 30.464-41.813 60.971-106.667 60.971z" />
<glyph unicode="&#xe641;" d="M725.333 170.667c-23.595 0-42.667 19.072-42.667 42.667s19.072 42.667 42.667 42.667c70.571 0 128 57.429 128 128s-57.429 128-128 128c-10.155 0-21.163-1.792-34.688-5.589l-45.696-12.843-7.936 46.848c-13.909 82.432-84.437 142.251-167.68 142.251-94.080 0-170.667-76.544-170.667-170.667 0-11.691 1.152-23.253 3.499-34.389l11.093-52.907-61.269 2.219c-43.093-0.256-81.323-38.528-81.323-85.589s38.229-85.333 85.333-85.333c23.595 0 42.667-19.072 42.667-42.667s-19.072-42.667-42.667-42.667c-94.080 0-170.667 76.544-170.667 170.667 0 79.403 54.485 146.304 128.085 165.291-0.085 1.792-0.085 3.584-0.085 5.376 0 141.184 114.816 256 256 256 110.379 0 205.824-69.888 241.024-171.307 124.8 10.283 228.309-90.112 228.309-212.693 0-117.632-95.701-213.333-213.333-213.333zM539.264 341.334l-192-172.843 128-61.824-64-149.333 192 172.8-128 61.867z" />
<glyph unicode="&#xe642;" d="M725.333 170.667c-23.552 0-42.667 19.072-42.667 42.667s19.115 42.667 42.667 42.667c70.571 0 128 57.429 128 128s-57.429 128-128 128c-10.368 0-21.333-1.749-34.56-5.547l-45.867-13.099-7.893 47.061c-13.909 82.432-84.395 142.251-167.68 142.251-94.123 0-170.667-76.544-170.667-170.667 0-11.605 1.152-23.253 3.499-34.603l10.411-51.157-60.587 0.683c-43.051-0.256-81.323-38.528-81.323-85.589s38.272-85.333 85.333-85.333c23.552 0 42.667-19.072 42.667-42.667s-19.115-42.667-42.667-42.667c-94.123 0-170.667 76.544-170.667 170.667 0 79.403 54.485 146.304 128.043 165.291-0.043 1.792-0.043 3.584-0.043 5.376 0 141.184 114.816 256 256 256 110.379 0 205.824-69.888 241.067-171.307 125.397 10.411 228.267-90.155 228.267-212.693 0-117.632-95.701-213.333-213.333-213.333zM448 170.667l42.667 128 42.667-128c7.851-23.595-4.864-49.024-28.459-56.875-23.552-7.893-49.024 4.864-56.875 28.416-3.2 9.643-2.987 19.541 0 28.459zM576 85.334l42.667 128 42.667-128c7.851-23.595-4.864-49.024-28.459-56.875-23.552-7.893-49.024 4.864-56.875 28.416-3.2 9.643-2.987 19.541 0 28.459zM320 85.334l42.667 128 42.667-128c7.851-23.595-4.864-49.024-28.459-56.875-23.552-7.893-49.024 4.864-56.875 28.416-3.2 9.643-2.987 19.541 0 28.459z" />
<glyph unicode="&#xe643;" d="M618.667 810.667l-42.667-128-42.667 128c-7.851 23.595 4.864 49.024 28.416 56.875 23.595 7.893 49.067-4.864 56.917-28.416 3.2-9.643 2.987-19.541 0-28.459zM847.531 680.534l-120.704-60.373 60.373 120.704c11.136 22.229 38.144 31.189 60.331 20.139 22.229-11.136 31.189-38.144 20.139-60.373-4.565-9.045-11.691-15.872-20.139-20.096zM917.333 426.667l-128 42.667 128 42.667c23.595 7.893 49.024-4.864 56.917-28.459 7.851-23.552-4.907-48.981-28.501-56.875-9.6-3.2-19.499-2.944-28.416 0zM364.8 740.864l60.373-120.704-120.704 60.373c-22.229 11.136-31.232 38.144-20.139 60.331 11.136 22.229 38.187 31.189 60.331 20.139 9.088-4.565 15.915-11.691 20.139-20.139zM758.443 412.075c5.931 18.091 9.557 37.163 9.557 57.259 0 105.856-86.144 192-192 192-57.173 0-108.245-25.344-143.232-65.195-2.091 0.299-3.925 1.195-6.101 1.195-75.776 0-143.744-33.28-190.677-85.803-10.24 3.413-20.139 3.669-29.739 0.469-23.595-7.893-36.352-33.323-28.501-56.875 2.432-7.125 6.741-12.757 11.819-17.536-12.075-29.739-18.901-62.208-18.901-96.256 0-1.792 0-3.584 0.085-5.376-73.6-18.987-128.085-85.888-128.085-165.291 0-94.123 76.587-170.667 170.667-170.667h469.333c117.632 0 213.333 95.701 213.333 213.333 0 90.837-57.344 168.064-137.557 198.741zM576 576c58.837 0 106.667-47.829 106.667-106.667 0-15.616-4.096-30.123-10.155-43.477-15.104-0.896-30.72-3.157-47.701-8.021-22.229 57.728-68.437 103.040-126.592 123.947 19.456 20.907 47.019 34.219 77.781 34.219zM682.667 85.334h-469.333c-47.104 0-85.333 38.272-85.333 85.333s38.229 85.333 81.408 85.589l60.672-0.683-10.581 51.285c-2.347 11.221-3.499 22.869-3.499 34.475 0 94.123 76.587 170.667 170.667 170.667 1.024 0 1.92 0.555 2.944 0.597 81.237-2.347 149.12-59.989 164.139-139.52 1.323-3.328 0.939-5.589 1.621-7.936 5.248-18.603 22.059-30.123 40.363-30.379 4.523 0.043 8.405-0.128 12.331 0.981 13.312 3.84 24.277 5.589 34.603 5.589 70.571 0 128-57.429 128-128s-57.429-128-128-128z" />
<glyph unicode="&#xe644;" d="M640-0c-23.552 0-42.667 19.072-42.667 42.667v256c0 23.595 19.115 42.667 42.667 42.667s42.667-19.072 42.667-42.667v-256c0-23.595-19.115-42.667-42.667-42.667zM384-0c-23.552 0-42.667 19.072-42.667 42.667v256c0 23.595 19.115 42.667 42.667 42.667s42.667-19.072 42.667-42.667v-256c0-23.595-19.115-42.667-42.667-42.667zM512-85.333c-23.552 0-42.667 19.072-42.667 42.667v256c0 23.595 19.115 42.667 42.667 42.667s42.667-19.072 42.667-42.667v-256c0-23.595-19.115-42.667-42.667-42.667zM256 170.667c-94.123 0-170.667 76.544-170.667 170.667 0 79.403 54.485 146.304 128.043 165.291-0.043 1.792-0.043 3.584-0.043 5.376 0 141.184 114.816 256 256 256 110.379 0 205.824-69.931 241.067-171.307 125.269 10.411 228.267-90.155 228.267-212.693 0-95.616-64.299-180.181-156.416-205.611-22.827-6.229-46.208 7.083-52.48 29.739-6.272 22.699 7.040 46.208 29.781 52.48 55.211 15.275 93.781 66.005 93.781 123.392 0 70.571-57.429 128-128 128-10.325 0-21.291-1.749-34.603-5.547l-45.824-13.056-7.893 47.019c-13.909 82.432-84.395 142.251-167.68 142.251-94.123 0-170.667-76.544-170.667-170.667 0-11.605 1.152-23.253 3.499-34.475l10.581-51.285-60.672 0.683c-43.136-0.256-81.408-38.528-81.408-85.589s38.272-85.333 85.333-85.333c23.552 0 42.667-19.072 42.667-42.667s-19.115-42.667-42.667-42.667z" />
<glyph unicode="&#xe645;" d="M725.333 128h-469.333c-94.123 0-170.667 76.544-170.667 170.667 0 79.403 54.485 146.304 128.043 165.291-0.043 1.792-0.043 3.584-0.043 5.376 0 141.184 114.816 256 256 256 110.379 0 205.824-69.888 241.067-171.307 125.525 10.496 228.267-90.155 228.267-212.693 0-117.632-95.701-213.333-213.333-213.333zM251.947 384.256c-43.008-0.256-81.28-38.528-81.28-85.589s38.272-85.333 85.333-85.333h469.333c70.571 0 128 57.429 128 128s-57.429 128-128 128c-10.368 0-21.333-1.749-34.56-5.547l-45.867-13.099-7.936 47.061c-13.867 82.432-84.352 142.251-167.637 142.251-94.123 0-170.667-76.544-170.667-170.667 0-11.605 1.152-23.253 3.499-34.603l10.411-51.157-60.629 0.683z" />
<glyph unicode="&#xe646;" d="M895.488 409.771l-212.821 121.643v204.587c0 82.347-66.987 149.333-149.333 149.333s-149.333-66.987-149.333-149.333v-204.587l-212.821-121.643c-56.192-32.085-79.573-101.163-54.443-160.811 25.131-59.691 90.965-91.093 153.131-73.387l114.133 32.64v-35.755l-37.291-29.824c-51.115-40.917-63.147-113.792-27.861-168.917 35.285-55.168 106.411-74.795 165.077-45.483 0.171 0.043 21.333 7.808 49.408 7.808s49.237-7.765 49.408-7.808c58.667-29.312 129.792-9.685 165.077 45.483 35.285 55.125 23.253 128-27.861 168.917l-37.291 29.824v35.755l114.176-32.64c62.165-17.707 128 13.696 153.131 73.387 25.131 59.691 1.749 128.725-54.485 160.811zM871.339 282.112c-8.405-19.883-30.336-30.421-51.029-24.448l-222.976 63.659v-189.909l69.333-55.467c17.024-13.611 21.035-37.931 9.301-56.32-11.733-18.347-35.328-24.875-55.040-15.147-0.341 0.171-35.157 16.853-87.595 16.853s-87.253-16.683-87.595-16.853c-19.712-9.685-43.307-3.157-55.040 15.147-11.733 18.389-7.765 42.667 9.301 56.32l69.333 55.467v189.909l-222.976-63.701c-20.693-5.973-42.624 4.565-51.029 24.448-8.363 19.883-0.597 42.88 18.176 53.589l255.829 146.219v254.123c0 35.285 28.715 64 64 64s64-28.715 64-64v-254.123l255.829-146.176c18.773-10.709 26.539-33.707 18.176-53.589zM554.667 746.667c0-11.782-9.551-21.333-21.333-21.333-11.782 0-21.333 9.551-21.333 21.333 0 11.782 9.551 21.333 21.333 21.333 11.782 0 21.333-9.551 21.333-21.333z" />
<glyph unicode="&#xe647;" d="M832.085 781.995l-76.587 76.501c-24.149 24.192-56.32 37.504-90.496 37.504s-66.347-13.312-90.496-37.504l-67.669-67.669c-49.92-49.92-49.92-131.072 0-180.992l58.837-58.837-178.005-178.005-58.837 58.837c-24.149 24.192-56.32 37.504-90.496 37.504s-66.347-13.312-90.496-37.504l-67.669-67.669c-49.92-49.92-49.92-131.072 0-180.992l76.544-76.501c19.84-19.84 76.629-65.92 175.616-65.92 117.931 0 242.944 65.237 371.669 193.92 266.453 266.496 205.867 469.419 128.085 547.328zM567.168 730.496l67.669 67.669c8.32 8.32 19.243 12.501 30.165 12.501s21.845-4.181 30.165-12.501l46.208-46.165-128.043-128-46.165 46.165c-16.683 16.683-16.683 43.648 0 60.331zM140.501 243.499c-16.683 16.683-16.683 43.648 0 60.331l67.669 67.669c8.32 8.32 19.243 12.501 30.165 12.501s21.845-4.181 30.165-12.501l46.165-46.165-127.957-128-46.208 46.165zM643.669 294.998c-131.541-131.499-236.843-168.917-311.339-168.917-57.557 0-96.725 22.315-115.285 40.917-0.171 0.171 127.787 128.171 127.787 128.171l12.672-12.672c8.32-8.32 19.243-12.501 30.165-12.501s21.845 4.181 30.165 12.501l238.336 238.336c16.683 16.683 16.683 43.648 0 60.331l-12.672 12.672 128.043 128c42.795-42.837 105.259-193.664-127.872-426.837z" />
<glyph unicode="&#xe648;" d="M512 256c-94.123 0-170.667 76.587-170.667 170.667v256c0 94.080 76.544 170.667 170.667 170.667s170.667-76.587 170.667-170.667v-256c0-94.080-76.544-170.667-170.667-170.667zM512 768c-47.061 0-85.333-38.229-85.333-85.333v-256c0-47.104 38.272-85.333 85.333-85.333s85.333 38.229 85.333 85.333v256c0 47.104-38.272 85.333-85.333 85.333zM810.667 426.667v85.333c0 23.595-19.072 42.667-42.667 42.667s-42.667-19.072-42.667-42.667v-85.333c0-117.632-95.701-213.333-213.333-213.333s-213.333 95.701-213.333 213.333v85.333c0 23.595-19.072 42.667-42.667 42.667s-42.667-19.072-42.667-42.667v-85.333c0-150.187 111.488-274.432 256-295.253v-46.080h-128c-23.595 0-42.667-19.072-42.667-42.667s19.072-42.667 42.667-42.667h341.333c23.595 0 42.667 19.072 42.667 42.667s-19.072 42.667-42.667 42.667h-128v46.080c144.512 20.821 256 145.067 256 295.253z" />
<glyph unicode="&#xe649;" d="M554.667 768l-42.667-125.184-42.667 125.184c-8.021 23.595 4.523 49.152 28.117 57.216 23.552 8.021 49.195-4.565 57.216-28.117 3.328-9.813 3.072-20.011 0-29.099zM170.667 469.334l125.184-42.667-125.184-42.667c-23.595-8.021-49.152 4.523-57.216 28.117-8.021 23.552 4.565 49.195 28.117 57.216 9.813 3.328 20.011 3.072 29.099 0zM469.333 85.334l42.667 125.184 42.667-125.184c8.021-23.595-4.523-49.152-28.117-57.216-23.552-8.021-49.152 4.523-57.216 28.117-3.328 9.813-3.072 20.011 0 29.099zM853.333 384.086l-125.184 42.667 125.184 42.667c23.595 8.021 49.152-4.523 57.216-28.117 8.021-23.552-4.523-49.152-28.117-57.216-9.813-3.328-20.011-3.072-29.099 0zM300.8 698.198l58.325-118.656-118.656 58.325c-22.357 10.965-31.573 38.016-20.608 60.331 11.008 22.315 38.016 31.531 60.331 20.565 9.301-4.565 16.341-11.947 20.608-20.565zM240.469 215.51l118.656 58.325-58.325-118.656c-10.965-22.315-38.016-31.531-60.331-20.565-22.315 11.008-31.531 38.016-20.565 60.331 4.565 9.301 11.947 16.299 20.565 20.565zM723.157 155.179l-58.325 118.656 118.656-58.325c22.315-10.965 31.531-38.016 20.565-60.331-11.008-22.315-38.016-31.531-60.331-20.565-9.301 4.565-16.299 11.947-20.565 20.565zM783.445 637.952l-118.699-58.368 58.368 118.699c10.965 22.315 38.016 31.531 60.331 20.565 22.315-11.008 31.531-38.016 20.523-60.373-4.523-9.259-11.904-16.256-20.523-20.523zM512 234.667c-105.856 0-192 86.144-192 192s86.144 192 192 192 192-86.144 192-192-86.144-192-192-192zM512 533.334c-58.837 0-106.667-47.829-106.667-106.667s47.829-106.667 106.667-106.667 106.667 47.829 106.667 106.667-47.829 106.667-106.667 106.667z" />
<glyph unicode="&#xe64a;" d="M874.667 292.95l-104.832 21.461 63.275 16.896c22.741 6.101 36.267 29.44 30.165 52.267-6.059 22.741-29.397 36.267-52.267 30.165l-64.341-17.195c1.579 9.856 3.029 19.797 3.029 30.123s-1.451 20.309-3.029 30.165l64.427-17.237c3.712-0.981 7.424-1.451 11.093-1.451 18.816 0 36.096 12.587 41.173 31.616 6.101 22.741-7.424 46.165-30.165 52.267l-63.275 16.939 104.747 21.419c9.216 1.877 17.92 6.656 24.619 14.208 16.469 18.603 14.805 47.019-3.797 63.488-18.603 16.469-47.019 14.805-63.488-3.797l-70.955-79.957 16.981 63.104c6.144 22.741-7.381 46.165-30.123 52.309-22.656 6.059-46.165-7.381-52.309-30.123l-17.365-64.725c-15.616 12.757-32.896 23.211-52.011 30.592l47.019 47.019c16.683 16.683 16.683 43.648 0 60.331s-43.648 16.683-60.331 0l-46.336-46.336 33.835 101.504c2.944 8.917 3.2 18.816 0 28.459-7.851 23.552-33.323 36.309-56.875 28.416-23.552-7.851-36.267-33.28-28.459-56.875l33.835-101.504-46.336 46.336c-16.683 16.683-43.648 16.683-60.331 0s-16.683-43.648 0-60.331l47.019-47.019c-19.072-7.381-36.395-17.877-52.011-30.592l-17.28 64.64c-6.101 22.784-29.739 36.352-52.224 30.208-22.784-6.101-36.309-29.44-30.208-52.224l16.896-63.36-70.912 80.085c-6.229 6.997-14.72 12.16-24.661 14.208-24.32 4.992-48.085-10.667-53.077-34.987s10.709-48.128 35.072-53.12l104.704-21.461-63.147-16.896c-22.741-6.101-36.267-29.483-30.165-52.267 5.077-19.072 22.315-31.616 41.173-31.616 3.669 0 7.381 0.469 11.093 1.451l64.341 17.237c-1.664-9.856-3.115-19.84-3.115-30.123 0-10.325 1.451-20.267 3.029-30.165l-64.341 17.237c-22.699 6.059-46.123-7.381-52.267-30.165-6.144-22.741 7.424-46.165 30.165-52.267l63.275-16.939-104.747-21.419c-9.216-1.877-17.92-6.656-24.619-14.251-16.512-18.603-14.805-47.019 3.797-63.445 18.603-16.512 47.061-14.805 63.488 3.797l71.040 80.128-16.981-63.317c-6.144-22.741 7.381-46.165 30.165-52.267 3.712-0.981 7.424-1.451 11.093-1.451 18.816 0 36.053 12.544 41.173 31.616l17.323 64.64c15.616-12.715 32.896-23.211 52.053-30.549l-47.104-47.019c-16.683-16.64-16.683-43.648 0-60.331s43.648-16.683 60.331 0l30.123 30.165h10.752l-28.416-85.291c-2.944-8.917-3.2-18.816 0-28.459 7.851-23.552 33.323-36.309 56.875-28.416 23.595 7.851 36.309 33.28 28.459 56.875l-28.416 85.291h10.752l30.165-30.165c8.363-8.32 19.243-12.501 30.165-12.501s21.845 4.181 30.165 12.501c16.683 16.64 16.683 43.648 0 60.331l-47.019 47.061c19.115 7.339 36.437 17.835 52.053 30.592l17.323-64.725c5.12-19.072 22.315-31.616 41.173-31.616 3.669 0 7.381 0.469 11.093 1.451 22.741 6.101 36.309 29.483 30.165 52.267l-16.939 63.147 70.912-79.957c6.229-7.040 14.72-12.16 24.619-14.208 24.32-4.992 48.128 10.709 53.077 35.029 4.992 24.32-10.709 48.085-35.029 53.077zM557.739 320c-58.837 0-106.667 47.829-106.667 106.667s47.829 106.667 106.667 106.667 106.667-47.829 106.667-106.667-47.829-106.667-106.667-106.667z" />
<glyph unicode="&#xe64b;" d="M448 85.334c-36.736 0-72.96 6.443-107.648 19.243l-56.192 20.693 37.973 46.379c54.4 66.56 83.2 147.371 83.2 233.685s-28.8 167.125-83.243 233.685l-37.973 46.379 56.192 20.693c34.731 12.8 70.955 19.243 107.691 19.243 176.469 0 320-143.531 320-320s-143.531-320-320-320zM426.283 171.691c7.211-0.683 14.464-1.024 21.717-1.024 129.365 0 234.667 105.301 234.667 234.667s-105.301 234.667-234.667 234.667c-7.253 0-14.507-0.341-21.717-1.024 42.283-70.187 64.384-149.803 64.384-233.643s-22.101-163.456-64.384-233.643z" />
<glyph unicode="&#xe64c;" d="M749.568 536.235c0 108.8-38.656 238.592-40.277 244.053-5.461 18.048-22.059 30.379-40.875 30.379h-312.832c-18.816 0-35.413-12.331-40.875-30.379-1.621-5.461-40.277-135.253-40.277-244.053 0-116.693 84.651-213.803 195.712-233.685-0.128-1.28-0.811-2.517-0.811-3.883v-170.667h-42.667c-23.595 0-42.667-19.072-42.667-42.667s19.072-42.667 42.667-42.667h170.667c23.595 0 42.667 19.072 42.667 42.667s-19.072 42.667-42.667 42.667h-42.667v170.667c0 1.365-0.683 2.603-0.811 3.925 111.061 19.883 195.712 116.949 195.712 233.643zM512 384c-75.648 0-138.069 55.595-149.803 128h299.563c-11.691-72.405-74.112-128-149.76-128zM360.32 554.667c2.645 62.635 18.005 131.968 27.861 170.667h247.595c9.856-38.699 25.216-108.032 27.861-170.667h-303.317z" />
<glyph unicode="&#xe64d;" d="M914.005 529.323l-275.84 278.827c-56.704 56.747-131.712 87.851-211.499 87.851s-154.795-31.104-211.2-87.509c-60.416-60.331-90.752-143.189-86.485-226.731-28.245-46.293-43.648-99.413-43.648-155.051 0-79.787 31.104-154.795 87.509-211.2l130.261-127.317 148.565-148.48c16.683-16.725 38.485-25.045 60.331-25.045s43.648 8.32 60.331 25.003l298.667 298.667c33.195 33.195 33.365 86.955 0.341 120.32l-3.968 4.011 46.293 46.336c33.195 33.195 33.365 86.955 0.341 120.32zM512-0l-149.248 149.205-129.579 126.635c-83.328 83.328-83.328 218.411 0 301.653 41.643 41.685 96.256 62.507 150.827 62.507s109.184-20.821 150.827-62.507l275.84-278.827-298.667-298.667zM595.499 637.483c-56.704 56.747-131.712 87.851-211.499 87.851-54.443 0-106.539-14.805-152.107-41.899 10.283 23.467 24.704 45.525 43.947 64.768 41.643 41.643 96.256 62.464 150.827 62.464s109.184-20.821 150.827-62.507l275.84-278.827-45.995-45.995-211.84 214.144zM384 490.71c35.413 0 64-28.672 64-64.043 0-35.413-28.587-63.957-64-63.957s-64 28.544-64 63.957c0 35.371 28.587 64.043 64 64.043zM384 533.376c-58.795 0-106.667-47.872-106.667-106.709 0-58.795 47.872-106.624 106.667-106.624s106.667 47.829 106.667 106.624c0 58.837-47.872 106.709-106.667 106.709z" />
<glyph unicode="&#xe64e;" d="M896 384c0 211.755-172.245 384-384 384s-384-172.245-384-384v-110.933c0-1.707 0.811-3.157 0.981-4.821-0.555-10.368-0.981-21.333-0.981-33.579v-85.333c0-82.347 66.987-149.333 149.333-149.333s149.333 66.987 149.333 149.333v85.333c0 64.469-35.413 119.040-84.565 139.861 4.053 90.539 78.379 163.115 169.899 163.115s165.845-72.533 169.899-163.072c-49.152-20.907-84.565-75.435-84.565-139.904v-85.333c0-82.347 66.987-149.333 149.333-149.333s149.333 66.987 149.333 149.333v85.333c0 12.245-0.427 23.211-0.981 33.579 0.171 1.664 0.981 3.115 0.981 4.821v110.933zM213.333 384c0 67.669 22.955 129.963 61.099 180.096l37.973-37.931c-31.659-39.595-51.968-88.533-55.552-142.165-0.853 0-0.853-42.667-0.853-42.667h-42.667v42.667zM341.333 149.334c0-35.285-28.715-64-64-64s-64 28.715-64 64v85.333c0 28.416 2.432 50.176 4.864 64h80.469c20.181 0 42.667-26.283 42.667-64v-85.333zM672.853 547.755l-15.104-15.104c-38.912 38.955-90.667 60.416-145.749 60.416s-106.837-21.461-145.792-60.416l-90.539 90.496c63.104 63.147 147.072 97.92 236.331 97.92 89.301 0 173.227-34.773 236.331-97.92l-75.477-75.392zM810.667 149.334c0-35.285-28.715-64-64-64s-64 28.715-64 64v85.333c0 37.717 22.485 64 42.667 64h80.469c2.432-13.824 4.864-35.584 4.864-64v-85.333zM810.667 341.334h-42.667v42.667c-4.437 53.632-24.747 102.571-56.405 142.165l38.016 37.931c38.101-50.133 61.056-112.384 61.056-180.096v-42.667z" />
<glyph unicode="&#xe64f;" d="M512 192c-164.651 0-298.667 134.016-298.667 298.667h85.333c0-117.632 95.701-213.333 213.333-213.333s213.333 95.701 213.333 213.333h85.333c0-164.651-134.016-298.667-298.667-298.667zM768 426.667c-23.595 0-42.667 19.072-42.667 42.667v128h-426.667v-128c0-23.595-19.072-42.667-42.667-42.667s-42.667 19.072-42.667 42.667v170.667c0 23.595 19.072 42.667 42.667 42.667h512c23.595 0 42.667-19.072 42.667-42.667v-170.667c0-23.595-19.072-42.667-42.667-42.667zM426.667 810.667v-128h-85.333v128h85.333zM426.667 853.334h-85.333c-23.595 0-42.667-19.072-42.667-42.667v-128c0-23.595 19.072-42.667 42.667-42.667h85.333c23.595 0 42.667 19.072 42.667 42.667v128c0 23.595-19.072 42.667-42.667 42.667zM554.667 192v-106.667h-85.333v106.667h85.333zM554.667 277.334h-85.334c-47.104 0-85.333-38.229-85.333-85.333v-106.667c0-47.104 38.229-85.333 85.333-85.333h85.333c47.104 0 85.333 38.229 85.333 85.333v106.667c0 47.104-38.229 85.333-85.333 85.333zM682.667 810.667v-128h-85.333v128h85.333zM682.667 853.334h-85.333c-23.595 0-42.667-19.072-42.667-42.667v-128c0-23.595 19.072-42.667 42.667-42.667h85.333c23.595 0 42.667 19.072 42.667 42.667v128c0 23.595-19.072 42.667-42.667 42.667zM768 426.667h-512c-11.776 0-21.333 9.557-21.333 21.333s9.557 21.333 21.333 21.333h512c11.776 0 21.333-9.557 21.333-21.333s-9.557-21.333-21.333-21.333zM512 234.667c-14.635 0-28.885 1.493-42.667 4.309v-68.309h85.333v68.309c-13.781-2.816-28.032-4.309-42.667-4.309zM384 256h42.667v-85.333h-42.667v85.333zM597.333 256h42.667v-85.333h-42.667v85.333z" />
<glyph unicode="&#xe650;" d="M725.333 640h-469.333c-70.571 0-128-57.429-128-128v-298.667c0-70.571 57.429-128 128-128h469.333c70.571 0 128 57.429 128 128v298.667c0 70.571-57.429 128-128 128zM768 213.334c0-23.552-19.115-42.667-42.667-42.667h-469.333c-23.552 0-42.667 19.115-42.667 42.667v170.667h554.667v-170.667zM768 469.334h-554.667v42.667c0 23.552 19.115 42.667 42.667 42.667h469.333c23.552 0 42.667-19.115 42.667-42.667v-42.667zM597.333 256h85.333c11.776 0 21.333 9.557 21.333 21.333s-9.557 21.333-21.333 21.333h-85.333c-11.776 0-21.333-9.557-21.333-21.333s9.557-21.333 21.333-21.333z" />
<glyph unicode="&#xe651;" d="M725.333 128h-512c-23.595 0-42.667 19.072-42.667 42.667s19.072 42.667 42.667 42.667h512c23.595 0 42.667-19.072 42.667-42.667s-19.072-42.667-42.667-42.667zM746.667 725.334h-533.333v-384c0-46.933 38.4-85.333 85.333-85.333h341.333c46.933 0 85.333 38.4 85.333 85.333v85.333h21.333c82.347 0 149.333 66.987 149.333 149.333s-66.987 149.333-149.333 149.333zM640 341.334h-341.333v298.667h341.333v-298.667zM746.667 512h-64v128h64c35.285 0 64-28.715 64-64s-28.715-64-64-64z" />
<glyph unicode="&#xe652;" d="M768 810.667h-469.333c-11.307 0-22.187-4.48-30.165-12.501l-128-128c-0.853-0.853-1.664-1.707-2.432-2.645-5.931-7.040-9.6-15.915-10.027-25.6-0.043-0.768-0.043-1.493-0.043-2.261v-468.992c0-70.571 57.429-128 128-128h384c55.637 0 103.083 35.669 120.704 85.333h28.629c59.819 0 106.667 56.192 106.667 128v426.667c0 70.571-57.429 128-128 128zM256 128c-23.509 0-42.667 19.115-42.667 42.667v426.667h85.333v-469.333h-42.667zM682.667 170.667c0-23.552-19.157-42.667-42.667-42.667h-298.667v469.333h298.667c23.509 0 42.667-19.115 42.667-42.667v-384zM810.667 256c0-26.453-13.824-42.667-21.333-42.667h-21.333v341.333c0 70.571-57.429 128-128 128h-366.336l42.667 42.667h451.669c23.509 0 42.667-19.115 42.667-42.667v-426.667z" />
<glyph unicode="&#xe653;" d="M426.667 234.667c0-11.733-9.6-21.333-21.333-21.333s-21.333 9.6-21.333 21.333v256c0 11.733 9.6 21.333 21.333 21.333s21.333-9.6 21.333-21.333v-256zM512 234.667c0-11.733-9.6-21.333-21.333-21.333s-21.333 9.6-21.333 21.333v256c0 11.733 9.6 21.333 21.333 21.333s21.333-9.6 21.333-21.333v-256zM597.333 234.667c0-11.733-9.6-21.333-21.333-21.333s-21.333 9.6-21.333 21.333v256c0 11.733 9.6 21.333 21.333 21.333s21.333-9.6 21.333-21.333v-256zM789.333 682.667h-21.333v42.667c0 47.104-38.229 85.333-85.333 85.333h-384c-47.104 0-85.333-38.229-85.333-85.333v-554.667c0-70.656 57.344-128 128-128h298.667c70.656 0 128 57.344 128 128h21.333c82.347 0 149.333 66.987 149.333 149.333v213.333c0 82.347-66.987 149.333-149.333 149.333zM298.667 725.334h384v-42.667h-189.611l-5.035-14.165c-6.997-19.541-28.288-31.147-47.659-27.648l-14.848 2.475-7.381-13.099c-11.392-20.267-32.64-32.896-55.467-32.896-35.285 0-64 28.715-64 64v64zM682.667 170.667c0-23.552-19.115-42.667-42.667-42.667h-298.667c-23.552 0-42.667 19.115-42.667 42.667v405.76c17.877-13.525 39.936-21.76 64-21.76 33.451 0 64.896 16.043 84.864 42.667 31.061 0 59.008 16.683 74.069 42.667h161.067v-469.334zM853.333 320c0-35.285-28.715-64-64-64h-64v341.333h64c35.285 0 64-28.715 64-64v-213.333z" />
<glyph unicode="&#xe654;" d="M886.656 197.334l-115.2 144h39.211c15.915 0 30.507 8.832 37.845 22.955 7.339 14.123 6.229 31.104-2.901 44.16l-298.667 426.667c-13.525 19.285-40.107 23.979-59.435 10.496-3.883-2.688-6.741-6.229-9.429-9.856-1.067-0.64-299.733-427.307-299.733-427.307-9.131-13.056-10.24-30.037-2.901-44.16 7.381-14.123 21.973-22.955 37.888-22.955h39.211l-115.2-144c-10.24-12.843-12.245-30.379-5.163-45.184 7.125-14.72 22.101-24.149 38.485-24.149h298.667v-128c0-23.595 19.115-42.667 42.667-42.667s42.667 19.072 42.667 42.667v128h298.667c16.384 0 31.36 9.429 38.443 24.149 7.125 14.805 5.12 32.341-5.12 45.184zM554.667 213.334v213.333c0 23.595-19.115 42.667-42.667 42.667s-42.667-19.072-42.667-42.667v-213.333h-209.877l115.2 144c10.24 12.843 12.245 30.379 5.163 45.184-7.125 14.72-22.101 24.149-38.485 24.149h-46.080l216.747 309.589 216.747-309.589h-46.080c-16.384 0-31.36-9.429-38.443-24.149-7.125-14.805-5.12-32.341 5.163-45.184l115.2-144h-209.92z" />
<glyph unicode="&#xe655;" d="M554.667 295.638v237.696c0 11.733-9.6 21.333-21.333 21.333s-21.333-9.6-21.333-21.333v-237.696c-36.693-9.557-64-42.667-64-82.304 0-47.061 38.229-85.333 85.333-85.333s85.333 38.272 85.333 85.333c0 39.637-27.307 72.747-64 82.304zM682.667 364.416v339.584c0 82.347-66.987 149.333-149.333 149.333s-149.333-66.987-149.333-149.333v-339.584c-39.339-38.485-64-91.776-64-151.083 0-117.632 95.701-213.333 213.333-213.333s213.333 95.701 213.333 213.333c0 59.307-24.661 112.597-64 151.083zM533.333 85.334c-70.571 0-128 57.429-128 128 0 47.147 25.899 87.979 64 110.208v380.459c0 35.285 28.715 64 64 64s64-28.715 64-64v-380.459c38.101-22.229 64-63.061 64-110.208 0-70.571-57.429-128-128-128z" />
<glyph unicode="&#xe656;" d="M896 640h-128c0 70.4-57.6 128-128 128h-512c-70.4 0-128-57.6-128-128v-298.667c0-70.4 57.6-128 128-128v-128l128 128c0-70.4 57.6-128 128-128h341.333l128-128v128h42.667c70.4 0 128 57.6 128 128v298.667c0 70.4-57.6 128-128 128zM128 298.667c-23.125 0-42.667 19.541-42.667 42.667v298.667c0 23.125 19.541 42.667 42.667 42.667h512c23.125 0 42.667-19.541 42.667-42.667v-42.667h-277.333c-58.837 0-106.667-47.829-106.667-106.667v-192h-170.667zM938.667 213.334c0-23.125-19.541-42.667-42.667-42.667h-512c-23.125 0-42.667 19.541-42.667 42.667v277.333c0 35.285 28.715 64 64 64h490.667c23.125 0 42.667-19.541 42.667-42.667v-298.667z" />
<glyph unicode="&#xe657;" d="M885.589 710.614c-8.149 9.344-19.883 14.72-32.256 14.72h-589.611l-8.32 49.664c-3.413 20.565-21.205 35.669-42.069 35.669h-96c-23.595 0-42.667-19.072-42.667-42.667s19.072-42.667 42.667-42.667h59.861l79.36-476.331c0.341-1.92 1.323-3.499 1.92-5.291 0.683-2.261 1.237-4.395 2.304-6.443 1.365-2.816 3.2-5.205 5.12-7.637 1.323-1.664 2.517-3.328 4.053-4.779 2.475-2.304 5.333-3.925 8.235-5.547 1.621-0.896 3.029-2.091 4.779-2.773 4.949-2.005 10.155-3.2 15.659-3.2 0.043 0 469.376 0 469.376 0 23.595 0 42.667 19.072 42.667 42.667s-19.072 42.667-42.667 42.667h-433.195l-7.083 42.667h482.944c21.248 0 39.253 15.616 42.24 36.608l42.667 298.667c1.749 12.288-1.92 24.704-9.984 34.005zM804.139 640l-12.16-85.333h-151.979v85.333h164.139zM597.333 640v-85.333h-128v85.333h128zM597.333 512v-85.333h-128v85.333h128zM426.667 640v-85.333h-128c-2.261 0-4.309-0.64-6.315-1.28l-14.421 86.613h148.736zM299.264 512h127.403v-85.333h-113.195l-14.208 85.333zM640 426.667v85.333h145.835l-12.16-85.333h-133.675zM426.667 106.667c0-35.346-28.654-64-64-64s-64 28.654-64 64c0 35.346 28.654 64 64 64 35.346 0 64-28.654 64-64zM810.667 106.667c0-35.346-28.654-64-64-64s-64 28.654-64 64c0 35.346 28.654 64 64 64 35.346 0 64-28.654 64-64z" />
<glyph unicode="&#xe658;" d="M853.333 469.334c0 209.067-149.291 388.267-354.987 425.941l-7.68 1.451-7.68-1.408c-205.696-37.717-354.987-216.917-354.987-425.984 0-196.992 132.608-367.36 320-417.92v-51.413c0-23.595 19.115-42.667 42.667-42.667s42.667 19.072 42.667 42.667v51.413c187.392 50.56 320 220.928 320 417.92zM533.333 140.8v127.701l185.771 185.771c8.32 8.32 8.32 21.845 0 30.165s-21.845 8.32-30.165 0l-155.605-155.605v153.003l100.437 100.437c8.32 8.32 8.32 21.845 0 30.165s-21.845 8.32-30.165 0l-70.272-70.272v140.501c0 23.595-19.115 42.667-42.667 42.667s-42.667-19.072-42.667-42.667v-140.501l-70.229 70.272c-8.32 8.32-21.845 8.32-30.165 0s-8.32-21.845 0-30.165l100.437-100.437v-153.003l-155.563 155.563c-8.32 8.32-21.845 8.32-30.165 0s-8.32-21.845 0-30.165l185.771-185.771v-127.659c-138.624 47.616-234.752 178.304-234.752 328.533 0 165.291 116.181 307.243 277.333 340.523 161.152-33.28 277.333-175.232 277.333-340.523 0-150.229-96.128-280.917-234.667-328.533z" />
</font>
</defs>
</svg>
